Search found 23 matches

Search on other PornSites
Author Message

Gregard

Post 11-Mar-2017 21:49

[Quote] 

Сборник видеороликов Fluffy Yiff Studio Часть 1
Год выпуска: 2017
Страна: Россия
Жанр: Фурри йифф в Second Life
Продолжительность: 16:40
Перевод: Не требуется
Режиссер: Adrammelech Gregard
В ролях: Kellas the Wolf and Adrammelech the Snow Leopard
Hideaki the Skunk and Shigeru the Wolf
Adrammelech the Snow Leopard and Kvad Sivers the Sergal
Описание: Первая часть подборки видео посвященного йиффу в игре Second Life от Fluffy Yiff Studio. Тематика M/M.
Качество: HD 1080p
Формат: MPEG
Видео кодек: DivX
Аудио кодек: AAC

Скриншоты



bjm

Post 03-Feb-2015 11:14

[Quote] 

блять неужели нельзя заменить одного на тёлку? а то это педарастия какаято получается
всё норм :)

gjhyjzobr

Post 29-Jan-2013 00:57

[Quote] 

блять неужели нельзя заменить одного на тёлку? а то это педарастия какаято получается

val.s.g

Post 09-Dec-2012 10:45

[Quote] 

Это что-то новое, прикольно посмотреть! Спасибо!

lar

Post 15-Nov-2012 00:15

[Quote] 

бальшое спасибо )

VAGUR

Post 28-May-2012 14:38

[Quote] 

спс

hddom

Post 21-May-2012 16:37

[Quote] 

,,,

Дениська-пиписька

Post 16-Apr-2012 19:16

[Quote] 

нармуль только я не гей, вод еслибы вместо лиса телачка была бы ваще супер было бы.

horse-love

Post 24-Mar-2012 15:03

[Quote] 

спс

hddom

Post 24-Mar-2012 04:59

[Quote] 

horse-love
их ного, потом наду залью
и делай скрины как требуется, а не как хочется

horse-love

Post 23-Mar-2012 15:04

[Quote] 

hddom http://yaoihaven.wetpaint.com/page/Furry+Yiffing+Video+Bananza! в этом видео присутствует лис отдельно от жеребца смотреть с 20.50 у тебя случайно такого видео отдельно нет?

hddom

Post 15-Feb-2012 03:15

[Quote] 

у некого "Taurin Fox" сушествует около 6-7 роликов,
я выбрал самый "свежий" и более менее "естественный"

Сет

Post 14-Feb-2012 19:59

[Quote] 

Вообще на одном форуме я читал, что какаято студия по созданию хентая собирается создавать видео на эту тему, правда когда не извесно.

MaximSvirida1981

Post 27-Jan-2012 05:52

[Quote] 

Спасибо.

spellforse

Post 25-Jan-2012 18:17

[Quote] 

Ха,прикольно,такого я еще не видел!

hddom

Post 24-Jan-2012 20:08

[Quote] 

Fox in the stable By Taurin Fox
Год выпуска: 2010
Режиссер: Taurin Fox
Продолжительность: 9мин, 32сек
Пропорциональность: 16:9
Описание:
Давно искали и наконец нашли ? = )
Наверное это одна и единственная в своем роде
хоть и мм, но лутше чем нечего
да и качество отличное несмотря на недоработки
Авторы:
Taurin Fox - animanion
Fann - music

Дополнительная информация

Общее
Полное имя :Fox-in-the-stable.mp4
Формат : MPEG-4
Профиль формата : Base Media / Version 2
Идентификатор кодека : mp42
Размер файла : 107 Мбайт
Продолжительность : 9 м. 32 с.
Режим общего битрейта : Переменный
Общий поток : 1561 Кбит/сек
Дата кодирования : UTC 2011-12-18 06:15:15
Дата пометки : UTC 2011-12-18 06:15:15
©TIM : 00;00;00;00
©TSC : 30000
©TSZ : 1001
Видео
Идентификатор : 1
Формат : AVC
Формат/Информация : Advanced Video Codec
Профиль формата : [email protected]
Параметр CABAC формата : Да
Параметр ReFrames формата : 3 кадра
Идентификатор кодека : avc1
Идентификатор кодека/Информация : Advanced Video Coding
Продолжительность : 9 м. 32 с.
Битрейт : 1494 Кбит/сек
Ширина : 768 пикселей
Высота : 432 пикселя
Соотношение сторон : 16:9
Режим частоты кадров : Постоянный
Частота кадров : 29,970 кадров/сек
Стандарт вещания : NTSC
Цветовое пространство : YUV
Субдискретизация насыщенности : 4:2:0
Битовая глубина : 8 бит
Тип развёртки : Прогрессивная
Бит/(Пиксели*Кадры) : 0.150
Размер потока : 102 Мбайт (96%)
Язык : English
Дата кодирования : UTC 2011-12-18 06:15:15
Дата пометки : UTC 2011-12-18 06:15:15
Основные цвета : BT.709-5, BT.1361, IEC 61966-2-4, SMPTE RP177
Характеристики трансфера : BT.709-5, BT.1361
Коэффициенты матрицы : BT.709-5, BT.1361, IEC 61966-2-4 709, SMPTE RP177
Аудио
Идентификатор : 2
Формат : AAC
Формат/Информация : Advanced Audio Codec
Профиль формата : LC
Идентификатор кодека : 40
Продолжительность : 9 м. 32 с.
Продолжительность оригинала : 9 м. 32 с.
Вид битрейта : Переменный
Битрейт : 61,6 Кбит/сек
Максимальный битрейт : 109 Кбит/сек
Каналы : 2 канала
Расположение каналов : Front: L R
Частота : 44,1 КГц
Метод сжатия : С потерями
Размер потока : 4,21 Мбайт (4%)
Размер потока оригинала : 4,21 Мбайт (4%)
Язык : English
Дата кодирования : UTC 2011-12-18 06:15:15
Дата пометки : UTC 2011-12-18 06:15:15

Скриншоты

horse-love

Post 16-Sep-2013 16:54

[Quote] 

и ЭТО должно как то возбуждать ???? ну вы пиздец извраты !!!
смысл было заходить и писать? не нравится не смотри...

kronprince

Post 15-Sep-2013 00:17

[Quote] 

и ЭТО должно как то возбуждать ???? ну вы пиздец извраты !!!

hddom

Post 05-Apr-2013 05:08

[Quote] 

где их взять то

lera1983

Post 04-Apr-2013 15:20

[Quote] 

Класс!Выкладывайте ещё

Izio20

Post 31-Mar-2013 16:50

[Quote] 

Просьба перекачайть торрент файл!

FRAEROK777

Post 04-Dec-2012 14:07

[Quote] 

Плиззз встаньте на раздачу ещё половину надо!)))

Izio20

Post 23-Oct-2012 00:53

[Quote] 

Сборник видеороликов работы yiffthistotal
Год выпуска: 2010
Жанр: Yiff
Продолжительность: 120 мин
Описание: Автор Fuzzy, эти видео взяты с сайта yiffthis.com который сейчас почему то не работает!
Большая часть работ имеет тематику М/М, советую учесть это перед тем как качать!
Качество: SATRip
Формат: MPEG
Видео: Advanced Video Codec at 2000 Кбит/сек 1280 x 720 (1.778) at 30.000 fps
Аудио: Advanced Audio Codec at 158 Кбит/сек 2 канала(ов), 44,1 КГц

Скриншоты

 

Current time is: 25-Apr 13:39

All times are UTC + 3