Search found 9 matches

Search on other PornSites
Author Message

rimko226

Post 27-May-2017 07:44

[Quote] 

Качаем!!! download
Добавлено спустя 4 дня 1 час 8 минут 51 секунда:
(((( ahtung ahtung ahtung ahtung ahtung ahtung

rimko226

Post 08-May-2017 21:47

[Quote] 

Временной промежуток: 2016
Жанр: 3D SideBySide, Sex, POV, Lesbian, Toys
Сайт: Penthouse.com
Тип ПАКа: В ПАКе 60 роликов (MegaPack)
Описание: В раздаче присутствуют ВСЕ ролики в 3D-формате, выложенные на сайте Penthouse.com
Video: MPEG4 Video (H264) 1920x1080 30fps 8000kbps
Audio: AAC 48000Hz stereo 128kbps

spooort

Post 03-Jan-2017 20:56

[Quote] 

Ребята, раздавайте кто может, пожалуйста!

one70

Post 01-Jun-2016 09:20

[Quote] 

вернитесь на раздачу кто-нибудь!!!

hscz72

Post 02-Dec-2015 15:04

[Quote] 

Раздавать буду максимум 3 суток ! дальше сами !

hscz72

Post 02-Dec-2015 14:59

[Quote] 


7 роликов для шлема виртуальной реальности Oculus Rift (180º & 360º Video)



Год выпуска: 2015

В ролях: Angel Wicky, August Ames, Valentina Nappi, Blanche Bradburry, Naomi Nevena

Жанр: All sex, POV, 3D, OculusRift


Студия:BaDoinkVR.com

Описание: 7 роликов для шлема виртуальной реальности Oculus Rift .


Качество: 2160p
Формат: MP4
Формат 3D: ролики для шлема виртуальной реальности Oculus Rift (180º & 360º Video)

Видео кодек: H.264/AVC
Аудио кодек: AAC

Видео: Video: MPEG4 Video (H264) 3840x2160 25fps 29799kbps
Аудио: Audio: AAC 48000Hz stereo 317kbps



Видео:MPEG4 Video (H264) 4096x2048 50fps 29921kbps
Аудио: AAC 48000Hz stereo 317kbps

скрины

00:14:26 | 3,04 Gb | 3840x2160 | BaDoinkVR_Angel_Wicky_oculus_180.mp4

00:16:21 | 3,46 Gb | 4096x2048 | BaDoinkVR_August_Ames_Valentina_Nappi_oculus_360.mp4

00:19:39 | 4,16 Gb | 3840x2160 | BaDoinkVR_Blanche_Bradburry_oculus_180.mp4

00:16:30 | 3,49 Gb | 3840x2160 | BaDoinkVR_Kitana_Lure_oculus_180.mp4

00:17:57 | 3,80 Gb | 3840x2160 | BaDoinkVR_Marta_LaCroft_oculus_180.mp4

00:19:11 | 4,06 Gb | 3840x2160 | BaDoinkVR_Naomi_Nevena_oculus_180.mp4

00:16:00 | 3,39 Gb | 3840x2160 | BaDoinkVR_Timea_Bella_oculus_180.mp4


ich liebe dich

Post 20-Aug-2016 06:51

[Quote] 

Alexa Tomas & Jimena Lago - Three-Course Meal
Имена моделей: Alexa Tomas, Jimena Lago
Название видео: Three-Course Meal
Подсайт и сайт: BaDoinkVR.com
Дата релиза: 03-12-2015
Жанр: All Sex, Lesbian, POV, 3D
Продолжительность: 00:16:40
Описание:
Lesbian VR porn is better than food porn -- especially if you're wearing your Google Cardboard goggles. Alexa and Jimena have cooked a delicious meal for you, but the appetizer they're about to serve you is much more mouth-watering! Feast on a hot threesome with these beautiful Spanish babes as you make them come all over the kitchen counter.
Тип HD видео: 1080p
Качество видео: HDRip
Формат видео: mp4
Видео: MPEG4 Video (H264) 1920x1080 59.94fps 5528kbps [V: h264 constrained baseline L3.0, yuv420p, 1920x1080, 5528 kb/s]
Аудио: AAC 44100Hz stereo 196kbps [A: SoundHandler (aac lc, 44100 Hz, stereo, 196 kb/s)]

скринлист


hscz72

Post 03-Dec-2015 02:50

[Quote] 


Remy LaCroix (20487 / 02.12.15)



Год выпуска: 2015

В ролях: Remy LaCroix

Жанр: Big Ass,Blow Job,Cum in Mouth,Innie Pussy,POV,Shaved,Natural Tits,Swallowing,Virtual Reality,VR Porn

Продолжительность: 00:30:57

Подсайт и сайт: NaughtyAmerica.com

Описание: Remy LaCroix is really trying to get your attention, but you are too busy with homework. Luckily, Remy has ways to make you give her what she wants. Today, you get to give Remy exactly what she's asking for..


Качество: 1080p
Формат: MP4

Видео кодек: H.264/AVC
Аудио кодек: AAC

Видео: MPEG4 Video (H264) 1920x1016 29.97fps 3255kbps
Аудио: AAC 48000Hz stereo 317kbps

МИ

Format profile : [email protected]
Format settings, CABAC : Yes
Format settings, ReFrames : 3 frames
Codec ID : avc1
Codec ID/Info : Advanced Video Coding
Duration : 30mn 56s
Bit rate : 3 217 Kbps
Width : 1 920 pixels
Height : 1 016 pixels
Display aspect ratio : 1.890
Frame rate mode : Variable
Frame rate : 59.940 fps
Minimum frame rate : 59.940 fps
Maximum frame rate : 60.000 fps
Standard : NTSC
Color space : YUV
Chroma subsampling : 4:2:0
Bit depth : 8 bits
Scan type : Progressive
Bits/(Pixel*Frame) : 0.028
Stream size : 712 MiB (91%)
Language : English
Encoded date : UTC 2015-12-01 20:14:37
Tagged date : UTC 2015-12-01 20:14:37
Color primaries : BT.709-5, BT.1361, IEC 61966-2-4, SMPTE RP177
Transfer characteristics : BT.709-5, BT.1361
Matrix coefficients : BT.709-5, BT.1361, IEC 61966-2-4 709, SMPTE RP177
Audio
ID : 2
Format : AAC
Format/Info : Advanced Audio Codec
Format profile : LC
Codec ID : 40
Duration : 30mn 56s
Bit rate mode : Variable
Bit rate : 317 Kbps
Maximum bit rate : 423 Kbps
Channel(s) : 2 channels
Channel positions : Front: L R
Sampling rate : 48.0 KHz
Compression mode : Lossy
Stream size : 70.3 MiB (9%)
Language : English
Encoded date : UTC 2015-12-01 20:14:37
Tagged date : UTC 2015-12-01 20:14:37
Material_Duration : 1857003
Material_StreamSize : 73670778

Скриншоты




hscz72

Post 01-Dec-2015 17:36

[Quote] 


Cumming Full Circle - A 360° Experience / August Ames, Valentina Nappi, Jaclyn Taylor



Год выпуска: 2015

В ролях: August Ames, Valentina Nappi, Jaclyn Taylor

Жанр: all sex, 3d

Продолжительность: 00:16:21

Студия:BaDoinkVR.com

Описание: Ahh the good life... Take a full 360° view at your beach house, as you kick it back with a buddy and 3 of your favorite porn stars. Most people would say you're lucky, but you call it Wednesday afternoon. Sit back and enjoy the sweet company of August Ames, Valentina Nappi, and Jaclyn Taylor in 3D goodness..


Качество: 2160p
Формат: MP4
Формат 3D: ролик для шлема виртуальной реальности Oculus Rift (180º & 360º Video)

Видео кодек: H.264/AVC
Аудио кодек: AAC

Видео: MPEG4 Video (H264) 2160x2160 25fps 14957kbps [V: Alias Data Handler [eng] (h264 main L5.0, yuv420p, 2160x2160, 14957 kb/s)]
Аудио: AC 48000Hz stereo 317kbps [A: Alias Data Handler [eng] (aac lc, 48000 Hz, stereo, 317 kb/s)]

МИ

General
Complete name : C:\сетка\Новая папка (4)\August Ames.mp4
Format : MPEG-4
Format profile : Base Media / Version 2
Codec ID : mp42
File size : 1.75 GiB
Duration : 16mn 21s
Overall bit rate mode : Variable
Overall bit rate : 15.3 Mbps
Encoded date : UTC 2015-07-20 15:39:46
Tagged date : UTC 2015-07-20 15:40:10
©TIM : 00:00:00:00
©TSC : 25
©TSZ : 1
Video
ID : 1
Format : AVC
Format/Info : Advanced Video Codec
Format profile : [email protected]
Format settings, CABAC : Yes
Format settings, ReFrames : 3 frames
Format settings, GOP : M=4, N=25
Codec ID : avc1
Codec ID/Info : Advanced Video Coding
Duration : 16mn 21s
Bit rate : 15.0 Mbps
Width : 2 160 pixels
Height : 2 160 pixels
Display aspect ratio : 1.000
Frame rate mode : Constant
Frame rate : 25.000 fps
Standard : PAL
Color space : YUV
Chroma subsampling : 4:2:0
Bit depth : 8 bits
Scan type : Progressive
Bits/(Pixel*Frame) : 0.128
Stream size : 1.71 GiB (98%)
Language : English
Encoded date : UTC 2015-07-20 15:39:46
Tagged date : UTC 2015-07-20 15:39:46
Color primaries : BT.709-5, BT.1361, IEC 61966-2-4, SMPTE RP177
Transfer characteristics : BT.709-5, BT.1361
Matrix coefficients : BT.709-5, BT.1361, IEC 61966-2-4 709, SMPTE RP177
Audio
ID : 2
Format : AAC
Format/Info : Advanced Audio Codec
Format profile : LC
Codec ID : 40
Duration : 16mn 21s
Bit rate mode : Variable
Bit rate : 317 Kbps
Maximum bit rate : 354 Kbps
Channel(s) : 2 channels
Channel positions : Front: L R
Sampling rate : 48.0 KHz
Compression mode : Lossy
Stream size : 37.1 MiB (2%)
Language : English
Encoded date : UTC 2015-07-20 15:39:46
Tagged date : UTC 2015-07-20 15:39:46
Material_Duration : 981355
Material_StreamSize : 38932180

Скриншоты



 

Current time is: 28-May 07:58

All times are UTC + 3