Search found 281 matches

Author Message

Forito

Post 12-Dec-2016 01:32

[Quote] 

зачет

Мареман

Post 18-Mar-2015 10:22

[Quote] 

Спасибо.

IgorekSh

Post 14-Feb-2014 14:57

[Quote] 

Анальное исследование молоденькой девчёнки в 3Д / Teeny all into anal explorations 3D
Имя актрисы: Lena
Название ролика: Teeny all into anal explorations 3D
Подсайт и сайт: pornfilms3d.com
Год производства: 2013 г.
Подсайт и сайт: PornFilms3D.com
Жанр: Anal, Blowjob, Sex, 3D
Продолжительность: 0:21:40
В ролях: Lena & Mihail
Описание: В который раз Михаил уламывает дечёнок на анал. Сегодня в его сети попала Лена. И всё это смотрите в 3Д.
Проверено на встроенном плейере ТВ Samsung UE55 D6100
Релиз:
Тип HD видео: 1080p
Формат 3D: Half SideBySide / Горизонтальная анаморфная стереопара
Формат видео: MP4
Видео кодек: AVC
Аудио кодек: AAC
Формат видео: MP4
Video: MPEG4 Video (H264) 1920x1080 25fps 11999kbps
Audio: AAC 48000Hz stereo 192kbps

Скриншоты

MediaInfo

Общее
Полное имя : D:\Download\Adult content\Teeny all into anal explorations 3D 2013 halfSbS 1080p (IgorekSh) [torrent3d.net].mp4
Формат : MPEG-4
Профиль формата : JVT
Идентификатор кодека : avc1
Размер файла : 1,85 Гбайт
Продолжительность : 21 м.
Режим общего битрейта : Постоянный
Общий поток : 12,2 Мбит/сек
Дата кодирования : UTC 2013-07-20 16:49:25
Дата пометки : UTC 2013-07-20 16:49:25
Видео
Идентификатор : 1
Формат : AVC
Формат/Информация : Advanced Video Codec
Профиль формата : [email protected]
Параметр CABAC формата : Да
Параметр ReFrames формата : 2 кадра
Идентификатор кодека : avc1
Идентификатор кодека/Информация : Advanced Video Coding
Продолжительность : 21 м.
Вид битрейта : Постоянный
Битрейт : 12,0 Мбит/сек
Ширина : 1920 пикселей
Высота : 1080 пикселей
Соотношение сторон : 16:9
Режим частоты кадров : Постоянный
Частота кадров : 25,000 кадров/сек
Цветовое пространство : YUV
Субдискретизация насыщенности : 4:2:0
Битовая глубина : 8 бит
Тип развёртки : Прогрессивная
Бит/(Пиксели*Кадры) : 0.231
Размер потока : 1,81 Гбайт (98%)
Язык : English
Дата кодирования : UTC 2013-07-20 16:49:25
Дата пометки : UTC 2013-07-20 16:49:25
Аудио
Идентификатор : 2
Формат : AAC
Формат/Информация : Advanced Audio Codec
Профиль формата : LC
Идентификатор кодека : 40
Продолжительность : 21 м.
Вид битрейта : Постоянный
Битрейт : 192 Кбит/сек
Каналы : 2 канала
Расположение каналов : Front: L R
Частота : 48,0 КГц
Метод сжатия : С потерями
Задержка видео : 40 мс.
Размер потока : 29,7 Мбайт (2%)
Язык : English
Дата кодирования : UTC 2013-07-20 16:49:25
Дата пометки : UTC 2013-07-20 16:49:25

78un

Post 26-Oct-2016 05:26

[Quote] 

рш

globus3107

Post 19-Oct-2014 13:23

[Quote] 

Большое спасибо!!!

yura.bologov

Post 18-Oct-2014 11:34

[Quote] 

Спасибо!!!!!

78un

Post 26-Oct-2016 05:26

[Quote] 

Спс

deeseven

Post 13-Jan-2015 19:08

[Quote] 

Anastasia Brill зачетная телочка.да и еще в 3d отличная раздача Thanks

xyj88

Post 08-Nov-2014 14:49

[Quote] 

cкорости бы...

Mafiozo

Post 18-Oct-2016 18:47

[Quote] 

Всем удачи и хорошево настроения ! Спасибо за просмотри скринлистов !

val.s.g

Post 08-Feb-2014 16:14

[Quote] 

Большое спасибо!

Mafiozo

Post 11-Oct-2016 22:55

[Quote] 

привет )))

piciu

Post 27-Nov-2015 23:15

[Quote] 

Спасибо но фильм сам по себе очень плохой ca все актёры очень растянуты имеют более 2м down Как будто сняли через бинокль только с другого конца down down down

val.s.g

Post 07-Aug-2016 12:13

[Quote] 

Японочка - супер.

IgorekSh

Post 15-Feb-2014 14:02

[Quote] 

S Model Collection 3D 14 / Супер Модели 3D 14
Год производства: 2013 г.
Страна: Япония
Жанр: Asian, Teen, Cream Pies, Handjob, Blowjob, Rape, Masturbation
Продолжительность: 01:46:00
Студийный код фильма: SM3D2DBD-14
Студия: Super Model Media
Цензура: Отсутствует
Язык: Японский
В ролях: Kyoka Mizusawa
Описание: Красивый японский трах.
Проверено на встроенном плейере ТВ Samsung UE55 D6100
Тип HD видео: 1080p
Формат 3D: Half OverUnder / Вертикальная анаморфная стереопара
Качество видео: BDRip
Формат видео: MKV
Видео кодек: H.264/AVC
Аудио кодек: AC3
Видео: MPEG4 Video (H264) / 1920x1080 / 23.976fps / 10.9 Mbps
Аудио: Japanese / Dolby AC3 / 6 ch / 48 kHz / 448 kbps
Релиз:

Скриншоты


smurfetty

Post 23-Dec-2015 02:56

[Quote] 

Отличный фильм, советую!

pasha-4

Post 02-Dec-2015 21:16

[Quote] 

Формат надо поменять на mkv

hscz72

Post 01-Dec-2015 21:53

[Quote] 


Love (3D) Любовь



Год выпуска: 2015

В ролях: Aomi Muyock ... Electra
Karl Glusman ... Murphy
Klara Kristin ... Omi
Ugo Fox ... Gaspar
Juan Saavedra ... Julio
Gaspar Noé ... Noe (as Aron Pages)
Isabelle Nicou ... Nora
Benoît Debie ... Yuyo
Vincent Maraval ... Castel
Déborah Révy ... Paula
Xamira Zuloaga ... Lucile
Stella Rocha ... Mami
Omaima S. ... Victoire

Жанр: Erotic \ Drama, Romance 3d

Продолжительность: 02:15:15


Режиссер:: Gaspar Noé


Язык: : Русский(перевод любительский одноголосый [VANO])


Доп. языки:: eng

Студия: Les Cinémas de la Zone, RT Features, Rectangle Productions

Описание: Мерфи просыпается в постели рядом с худой блондинкой Оми, его нынешней подружкой и по совместительству матерью его ребенка по имени Гаспар. Парень живет в наркотическом опьянении и не помнит, что же произошло вчера, но все еще любит свою бывшую девушку Электру. И именно в этот момент ему звонит обеспокоенная мать Электры, чтобы сообщить, что она бесследно исчезла несколько месяцев назад.


Качество: BDRip 1080p
Формат:MKV

Формат 3D: Half SideBySide / Горизонтальная анаморфная стереопара

Видео: MPEG4 Video (H264) 1920x808 23.976fps 8 900 Kbps
Аудио:MP3 48000Hz stereo 160kbps rus


Аудио2: DTS 48000Hz 6ch 1536kbps [eng]

Скриншоты




hscz72

Post 03-Dec-2015 00:23

[Quote] 

посмотрим, если отдачи нет , свой торрент запилю , на пл точно знаю днт запрещён .
обновил торрент

hscz72

Post 03-Dec-2015 00:18

[Quote] 


Sex Romance 3D - Vol. 3 Романтика Секса 3D - Том 3



Год выпуска: 2011

В ролях:Avril Sun, Betty Love

Жанр: Erotic, Softporn, 3D

Продолжительность:00:54:15


Режиссер:: Claudia Vasquez

Студия: KSM GmbH

Язык: : Английский


Описание: Achtung, geschätzte Freunde des hemungslosen Sexes: Lang ersehnt, ist jetzt endlich die neueste Folge von Sex Romance am Start. Und selbstverständlich geht es auch auch im dritten Teil des beliebten Hochglanz-Erotik-Bestsellers in Sachen Sex und Leidenschaft wieder voll zur Sache. Wie bereits von seinem Vorgänger bekannt und geschätzt, erneut in einer bestechenden Bildqualität, die im Körper einfach noch mehr Hitze produziert als es die megaheißen Sexspielchen eh schon tun: Blu-Ray in exquisiter 3D-Technik sei Dank! Also, einfach in den Recorder werfen-und allerfeinste Erotik der Extraklasse erleben. Denn mit der neuen, modernsten 3D-Technik geht es einfach noch geiler ab. Sie haben das Gefühl noch besser und dichter beim wilden sexuellen Treiben dabei zu sein als mit dem herkömmlichen 2D-Verfahren. Eine völlig neue und bisher unerreichte Bildqualität wird Ihnen hier geboten, so als wären sie wirklich mittendrin statt nur dabei als Zuschauer vor dem Bildschirm. Echt gigantisch! Werden Sie mit Sex Romance 3 selbst ein Teil dieser hemmungslosen sexuellen Obsessionen und begleiten unser Paar auf ihrer Reise zu noch nie erlebten sexuellen Höhepunkten. Ihre Libido wird es Ihnen auf jeden Fall danken... Sinnliche Blicke, zärtliche Berührungen, lustvolle Küsse und tabuloser Sex sind auf dieser Disc erneut garantiert. Denn schließlich ist es bereits der dritte Teil von Sex Romance . Und die erfahrene und erfolgreiche Regisseurin Claudia Vasquez, die ebenfalls auch schon bei weiteren, beliebten Erotikblockbustern wie Sex-Der Porno für Paare , Sex for Lovers oder Sex Deluxe-PornoXXXtreme ihr Können unter Beweis gestellt hat, weiß einfach wie es geht. Beobachten Sie das verliebte Pärchen beim hemmungslosen Oralverkehr und bei abwechslungsreichen Stellungen bis hin zu tabulosen Sexpraktiken: Wieder geben der bekannte Erotikfilmstar Angel Hott und ihr Partner Nicki Lang ihr Bestes und holen alles aus ihren Traumkörpern heraus. Ihr sexueller Appetit wird unersättlich und das Blut in Ihren Adern wird mit diesen raffinierten Liebesspielen mit Sicherheit wieder zum Kochen gebracht. Geben Sie sich einen Ruck und schieben diese heiße Scheibe in Ihren Playerr: Danach ist Langeweile nur noch ein Fremdwort in Ihrem Bett. Versprochen! Denn hier erleben Sie hautnah, was alles möglich ist, um ein erfülltes Sexleben zu haben und seine Fantasien (auch die geheimsten) endlich einmal auszuleben. Gönnen Sie sich diesen sexuellen Appetizer der Extraklasse und setzen endlich wieder richtig Segel in der heimischen Koje. Der Begriff Sturm und Drang erfährt mit Sex Romance nämlich eine völlig neue Bedeutung...Also, Leinen los und volle Fahrt voraus ins Sex-Paradies! Die Produktion Sex Romance 3 ist auch dieses Mal wieder die richtige Wahl, um Sie auf Touren zu bringen. Wie bereits in den beiden ersten Teilen bewiesen, sind hier echte Könner am Werk. Ergebnis: Ihnen wird erneut das Wasser im Munde zusammenlaufen und in der Lendengegend extrem heiß werden. Denn was hier in dieser guten Stunde sexmäßig abgeht, ist mit Worten kaum treffend zu beschreiben. Das müssen Sie sich selbst ansehen. Dieses Pärchen hat nicht einfach nur Geschlechtsverkehr, nein, hier wird der Sex noch richtig zelebriert. Unbedingt zum Nachmachen empfohlen, wenn Ihr Bett mal wieder richtig in Flammen stehen soll!


Качество: BDRip 1080p
Формат:MKV

Формат 3D: Half SideBySide / Горизонтальная анаморфная стереопара

Видео: MPEG4 Video (H264) 1920x1080 23.976fps 12900Kbps
Аудио:DTS 48000Hz 6ch 1536kbps

Скриншоты





Скринлист

МИ

General
Complete name : C:\сетка\Новая папка (4)\sex.3d.romance.vol.3.3d.xxx.german.1080p.bluray.x264-pussyfoot.mkv
Format : Matroska
Format version : Version 2
File size : 5.46 GiB
Duration : 54mn 14s
Overall bit rate : 14.4 Mbps
Writing application : mkvmerge v6.6.0 ('The Edge Of The In Between') built on Dec 1 2013 17:55:00
Writing library : libebml v1.3.0 + libmatroska v1.4.1
Video
ID : 1
Format : AVC
Format/Info : Advanced Video Codec
Format profile : [email protected]
Format settings, CABAC : Yes
Format settings, ReFrames : 4 frames
Codec ID : V_MPEG4/ISO/AVC
Duration : 54mn 14s
Bit rate : 12.9 Mbps
Width : 1 920 pixels
Height : 1 080 pixels
Display aspect ratio : 16:9
Frame rate : 23.976 fps
Color space : YUV
Chroma subsampling : 4:2:0
Bit depth : 8 bits
Scan type : Progressive
Bits/(Pixel*Frame) : 0.260
Stream size : 4.78 GiB (88%)
Writing library : x264 core 146 r2538 121396c
Encoding settings : cabac=1 / ref=4 / deblock=1:-3:-3 / analyse=0x3:0x133 / me=umh / subme=8 / psy=1 / psy_rd=1.00:0.15 / mixed_ref=1 / me_range=16 / chroma_me=1 / trellis=1 / 8x8dct=1 / cqm=0 / deadzone=21,11 / fast_pskip=0 / chroma_qp_offset=-3 / threads=12 / lookahead_threads=2 / sliced_threads=0 / nr=0 / decimate=1 / interlaced=0 / bluray_compat=0 / constrained_intra=0 / bframes=3 / b_pyramid=2 / b_adapt=2 / b_bias=0 / direct=3 / weightb=1 / open_gop=0 / weightp=2 / keyint=240 / keyint_min=24 / scenecut=40 / intra_refresh=0 / rc_lookahead=50 / rc=2pass / mbtree=1 / bitrate=12909 / ratetol=1.0 / qcomp=0.60 / qpmin=0 / qpmax=69 / qpstep=4 / cplxblur=20.0 / qblur=0.5 / ip_ratio=1.40 / aq=1:1.00
Language : English
Default : Yes
Forced : No
Audio
ID : 2
Format : DTS
Format/Info : Digital Theater Systems
Codec ID : A_DTS
Duration : 54mn 14s
Bit rate mode : Constant
Bit rate : 1 510 Kbps
Channel(s) : 6 channels
Channel positions : Front: L C R, Side: L R, LFE
Sampling rate : 48.0 KHz
Bit depth : 24 bits
Compression mode : Lossy
Stream size : 586 MiB (10%)
Title : DTS
Language : German
Default : Yes
Forced : No
Menu
00:00:00.000 : en:00:00:00.000
00:00:45.045 : en:00:00:45.045
00:14:53.976 : en:00:14:53.976
00:30:26.867 : en:00:30:26.867
00:40:07.989 : en:00:40:07.989

hscz72

Post 02-Dec-2015 17:38

[Quote] 


Infirmieres Deluxe(3D) Роскошные Медсестры



Год выпуска: 2015

В ролях: Aleska Diamond, Alex, Aliz, Cindy Hope, James Brossman, Katalin Kiraly, Tarra White, Valentina Blue, Zara

Жанр: Vignettes Anal DP 3d

Продолжительность: 01:35:43


Режиссер:: Marc Dorcel


Язык: : Английский


Страна: France

Студия: Marc Dorcel

Описание: It is necessary to see it to believe it, the 3D effect is simply stunning at the level of realism and visual sensations! The 3D which springs from your screen gives you the sensation that your favorite pornstar is in the room
Krankenschwestern, Doktoren, Patienten. Hier dreht sich alles um die Krankheit, ob im Krankenhaus oder bei einer Privatuntersuchung, die sexy Krankenschwestern sorgen stets für die korrekte Heilung!



Качество: BDRip 1080p
Формат:MKV

Формат 3D: Half SideBySide / Горизонтальная анаморфная стереопара

Видео: H.264/AVC 1920х1080 16/9 23976 fps 11300 kbps
Аудио:AC3 Dolby Digital, 48.0Hz, 2ch, 192 kbps

Скриншоты





Скринлист

МИ

General
Unique ID : 200372610983318499761145816919389437360 (0x96BE5C74823EEAE6BE4D50B61296FDB0)
Complete name : C:\сетка\Новая папка (4)\tatlov-infirmieresdeluxe1080.mkv
Format : Matroska
Format version : Version 4 / Version 2
File size : 7.65 GiB
Duration : 1h 35mn
Overall bit rate : 11.4 Mbps
Encoded date : UTC 2015-08-23 23:12:17
Writing application : mkvmerge v8.3.0 ('Over the Horizon') 64bit
Writing library : libebml v1.3.1 + libmatroska v1.4.2
DURATION : 01:35:42.944000000
NUMBER_OF_FRAMES : 179467
NUMBER_OF_BYTES : 137830656
_STATISTICS_WRITING_APP : mkvmerge v8.3.0 ('Over the Horizon') 64bit
_STATISTICS_WRITING_DATE_UTC : 2015-08-23 23:12:17
_STATISTICS_TAGS : BPS DURATION NUMBER_OF_FRAMES NUMBER_OF_BYTES
Video
ID : 1
Format : AVC
Format/Info : Advanced Video Codec
Format profile : [email protected]
Format settings, CABAC : Yes
Format settings, ReFrames : 4 frames
Codec ID : V_MPEG4/ISO/AVC
Duration : 1h 35mn
Bit rate : 11.3 Mbps
Width : 1 920 pixels
Height : 1 080 pixels
Display aspect ratio : 16:9
Frame rate : 25.000 fps
Color space : YUV
Chroma subsampling : 4:2:0
Bit depth : 8 bits
Scan type : Progressive
Bits/(Pixel*Frame) : 0.217
Stream size : 7.37 GiB (96%)
Writing library : x264 core 148 r2597 e86f3a1
Encoding settings : cabac=1 / ref=4 / deblock=1:-2:-2 / analyse=0x3:0x133 / me=umh / subme=9 / psy=1 / psy_rd=1.00:0.00 / mixed_ref=1 / me_range=16 / chroma_me=1 / trellis=1 / 8x8dct=1 / cqm=0 / deadzone=21,11 / fast_pskip=0 / chroma_qp_offset=-2 / threads=6 / lookahead_threads=1 / sliced_threads=0 / nr=0 / decimate=1 / interlaced=0 / bluray_compat=0 / constrained_intra=0 / bframes=3 / b_pyramid=2 / b_adapt=1 / b_bias=0 / direct=1 / weightb=1 / open_gop=0 / weightp=2 / keyint=250 / keyint_min=25 / scenecut=40 / intra_refresh=0 / rc_lookahead=40 / rc=2pass / mbtree=1 / bitrate=11250 / ratetol=1.0 / qcomp=0.60 / qpmin=0 / qpmax=69 / qpstep=4 / cplxblur=20.0 / qblur=0.5 / ip_ratio=1.40 / aq=1:1.00
Default : Yes
Forced : No
Audio
ID : 2
Format : AC-3
Format/Info : Audio Coding 3
Mode extension : CM (complete main)
Codec ID : A_AC3
Duration : 1h 35mn
Bit rate mode : Constant
Bit rate : 192 Kbps
Channel(s) : 2 channels
Channel positions : Front: L R
Sampling rate : 48.0 KHz
Bit depth : 16 bits
Compression mode : Lossy
Stream size : 131 MiB (2%)
Language : Italian
Default : Yes
Forced : No
Menu
00:00:00.000 : en:00:00:00.000
00:00:10.080 : en:00:00:10.080
00:00:19.200 : en:00:00:19.200
00:02:08.640 : en:00:02:08.640
00:17:34.080 : en:00:17:34.080
00:32:42.240 : en:00:32:42.240
00:55:00.000 : en:00:55:00.000
01:15:00.000 : en:01:15:00.000

hscz72

Post 01-Dec-2015 04:14

[Quote] 


Surround Pound with Christen and Julia - 08/06/2015 Christen Courtney, Julia De Lucia



Год выпуска: 2015

В ролях: Christen Courtney, Julia De Lucia

Жанр:all sex, 3d

Продолжительность: 00:16:47

Студия: BaDoinkVR.com

Описание: Teen girlfriends Christen Courtney and Julia De Lucia love to share everything, their clothes, the shower, and especially your fat juicy cock..


Качество: HD 1080p
Формат: MP4

Формат 3D: Half SideBySide / Горизонтальная анаморфная стереопара

Видео кодек: H.264/AVC
Аудио кодек: AAC

Видео: MPEG4 Video (H264) 1920x1080 29.97fps 14920kbps [V: Alias Data Handler [eng] (h264 main L4.1, yuv420p, 1920x1080, 14920 kb/s)]
Аудио:AAC 48000Hz stereo 317kbps [A: Alias Data Handler [eng] (aac lc, 48000 Hz, stereo, 317 kb/s)]

МИ

General
Complete name : C:\сетка\Новая папка (4)\Christen Courtney.mp4
Format : MPEG-4
Format profile : Base Media / Version 2
Codec ID : mp42
File size : 1.79 GiB
Duration : 16mn 46s
Overall bit rate mode : Variable
Overall bit rate : 15.2 Mbps
Encoded date : UTC 2015-07-29 13:09:14
Tagged date : UTC 2015-07-29 13:10:55
©TIM : 00;00;00;00
©TSC : 30000
©TSZ : 1001
Video
ID : 1
Format : AVC
Format/Info : Advanced Video Codec
Format profile : [email protected]
Format settings, CABAC : Yes
Format settings, ReFrames : 3 frames
Format settings, GOP : M=4, N=29
Codec ID : avc1
Codec ID/Info : Advanced Video Coding
Duration : 16mn 46s
Bit rate : 14.9 Mbps
Width : 1 920 pixels
Height : 1 080 pixels
Display aspect ratio : 16:9
Frame rate mode : Variable
Frame rate : 29.970 fps
Minimum frame rate : 29.970 fps
Maximum frame rate : 30.000 fps
Standard : NTSC
Color space : YUV
Chroma subsampling : 4:2:0
Bit depth : 8 bits
Scan type : Progressive
Bits/(Pixel*Frame) : 0.240
Stream size : 1.75 GiB (98%)
Language : English
Encoded date : UTC 2015-07-29 13:09:14
Tagged date : UTC 2015-07-29 13:09:14
Color primaries : BT.709-5, BT.1361, IEC 61966-2-4, SMPTE RP177
Transfer characteristics : BT.709-5, BT.1361
Matrix coefficients : BT.709-5, BT.1361, IEC 61966-2-4 709, SMPTE RP177
Audio
ID : 2
Format : AAC
Format/Info : Advanced Audio Codec
Format profile : LC
Codec ID : 40
Duration : 16mn 46s
Bit rate mode : Variable
Bit rate : 317 Kbps
Maximum bit rate : 443 Kbps
Channel(s) : 2 channels
Channel positions : Front: L R
Sampling rate : 48.0 KHz
Compression mode : Lossy
Stream size : 38.1 MiB (2%)
Language : English
Encoded date : UTC 2015-07-29 13:09:14
Tagged date : UTC 2015-07-29 13:09:14
Material_Duration : 1006720
Material_StreamSize : 39938470

Скриншоты




piciu

Post 27-Nov-2015 23:17

[Quote] 

плохо актёры очень растянуты ca

IgorekSh

Post 29-Oct-2013 18:13

[Quote] 

S Model Collection 3D 05 / Супер Модели 3D 05
Год производства: 2011 г.
Страна: Япония
Жанр: Asian, Teen, Cream Pies, Handjob, Blowjob, Rape, Masturbation
Продолжительность: 01:31:51
Студийный код фильма: SM3D2DBD 05
Студия: Super Model Media
Цензура: Отсутствует
Язык: Японский
В ролях: Hinata Tachibana
Описание: Красивый японский трах.--Проверено на встроенном плейере ТВ Samsung UE55 D6100--Тип HD видео: 1080p
Формат 3D: Half OverUnder / Вертикальная анаморфная стереопара
Качество видео: BDRip
Формат видео: MKV
Видео кодек: H.264/AVC
Аудио кодек: AC3
Видео: MPEG4 Video (H264) / 1920x1080 / 23.976fps / 10.9 Mbps
Аудио: Japanese / Dolby AC3 / 6 ch / 48 kHz / 448 kbps
Релиз:

MediaInfo

Format : Matroska
File size : 7.44 GiB
Duration : 1h 31mn
Overall bit rate : 11.6 Mbps
Movie name : [torrent3d.ru]
Encoded date : UTC 2013-09-21 01:18:47
Writing application : mkvmerge v4.0.0 ('The Stars were mine') сборка от Jun 6 2010 16:18:42
Writing library : libebml v1.0.0 + libmatroska v1.0.0
Video
ID : 1
Format : AVC
Format/Info : Advanced Video Codec
Format profile : [email protected]
Format settings, CABAC : No
Format settings, ReFrames : 2 frames
Muxing mode : Container [email protected]
Codec ID : V_MPEG4/ISO/AVC
Duration : 1h 31mn
Bit rate : 10.9 Mbps
Width : 1 920 pixels
Height : 1 080 pixels
Display aspect ratio : 16:9
Frame rate mode : Variable
Frame rate : 23.976 fps
Color space : YUV
Chroma subsampling : 4:2:0
Bit depth : 8 bits
Scan type : Progressive
Bits/(Pixel*Frame) : 0.219
Stream size : 7.00 GiB (94%)
Audio
ID : 2
Format : AC-3
Format/Info : Audio Coding 3
Mode extension : CM (complete main)
Codec ID : A_AC3
Duration : 1h 31mn
Bit rate mode : Constant
Bit rate : 448 Kbps
Channel(s) : 6 channels
Channel positions : Front: L C R, Side: L R, LFE
Sampling rate : 48.0 KHz
Stream size : 294 MiB (4%)
Title : Original
Language : Japanese

Скриншоты


 

piciu

Post 27-Nov-2015 23:08

[Quote] 

Спасибо но фильм сам по себе очень плохой bz все актёры очень растянуты имеют более 2м nahh Как бут то сняли через бинокль только с другого конца down down down

IgorekSh

Post 16-Nov-2013 18:33

[Quote] 

S Model Collection 3D 12 / Супер Модели 3D 12
Год производства: 2012 г.
Страна: Япония
Жанр: Asian, Teen, Cream Pies, Handjob, Blowjob, Rape, Masturbation
Продолжительность: 01:47:47
Студийный код фильма: SM3D2DBD 12
Студия: Super Model Media
Цензура: Отсутствует
Язык: Японский
В ролях: Alice Ozawa
Описание: Красивый японский трах.--Проверено на встроенном плейере ТВ Samsung UE55 D6100--Тип HD видео: 1080p
Формат 3D: Half OverUnder / Вертикальная анаморфная стереопара
Качество видео: BDRip
Формат видео: MKV
Видео кодек: H.264/AVC
Аудио кодек: AC3
Видео: MPEG4 Video (H264) / 1920x1080 / 23.976fps / 10.9 Mbps
Аудио: Japanese / Dolby AC3 / 6 ch / 48 kHz / 448 kbps
Релиз:

Скриншоты

 

Svezdanutyi

Post 16-Nov-2015 05:15

[Quote] 

Интересная дамочка- имён до чёрта, ориентация хм..... непонятная. Да-же у Вудмана без нормального секса обошлась.

funtek

Post 09-Jul-2015 17:29

[Quote] 

сделайте скриншоты плиз, а то я очень привередливый зритель

tchort

Post 25-Feb-2015 13:15

[Quote] 

delete - ,sk gjdnjh... ghjcnj ds vyt vyt yfljtkb vjkxf dct ltkfnm-c dfvb ;t yt djtdfkb-f ghjcbkb ujdjhbnm rjulf z yt ghfd bkb dfv ye;yj nfr-nj b nfr////x` pf k.lb&

Cyberwizard

Post 03-Feb-2015 01:09

[Quote] 

luisluis, а где он повтор увидел?

luisluis

Post 02-Feb-2015 11:43

[Quote] 

--Cindy Hope 3D / Etudiantе comblee par des gros calibres 3D-- -Подсайт и сайт: DorcelVision.com
Год производства: 2012
Страна: Франция
Жанр: All Sex, Threesome, 3D
Продолжительность: 00:19:20
Режиссер: Herve Bodilis
Студия: Marc Dorcel
В ролях: Cindy Hope, Alex, James Brossman-Описание: Отличный ролик от Dorcel с хорошей глубиной 3Д.-Тип HD видео: 1080p
Формат 3D: Half SideBySide / Горизонтальная анаморфная стереопара
Формат видео: DivX
Видео: MPEG4, DivX 5, 1920x1080 (16:9), 25.000 fps, 12.5 Mbps
Аудио: MP3, 44.1 KHz, 2 ch, 128 Kbps--

Скринлисты

-

one70

Post 26-Nov-2014 15:31

[Quote] 

встаньте на раздачу!!!

witon

Post 23-Oct-2014 14:05

[Quote] 

а как её смотреть ?

ironwead

Post 25-Mar-2014 01:11

[Quote] 

вот это да! ОБАЛДЕННО!

IgorekSh

Post 07-Oct-2013 14:38

[Quote] 

S Model Collection 3D 01 / Супер Модели 3D 01
Год производства: 2011 г.
Страна: Япония
Жанр: Asian, Teen, Cream Pies, Handjob, Blowjob, Rape, Masturbation
Продолжительность: 01:32:07
Студийный код фильма: SM3D2DBD 01
Студия: Super Model Media
Цензура: Отсутствует
Язык: Японский
В ролях: Azusa Nagasawa
Описание: Очередное японское произведение о том как "жарят" японскую девочку.--Проверено на встроенном плейере ТВ Samsung UE55 D6100--Тип HD видео: 1080p
Формат 3D: Half OverUnder / Вертикальная анаморфная стереопара
Качество видео: BDRip
Формат видео: MKV
Видео кодек: H.264/AVC
Аудио кодек: AC3
Видео: MPEG4 Video (H264) / 1920x1080 / 23.976fps / 11.2 Mbps
Аудио: Japanese / Dolby AC3 / 6 ch / 48 kHz / 448 kbps
Релиз:

MediaInfo

Format : Matroska
File size : 7.45 GiB
Duration : 1h 32mn
Overall bit rate : 11.6 Mbps
Movie name : [torrent3d.ru]
Encoded date : UTC 2013-09-19 13:48:28
Writing application : mkvmerge v4.0.0 ('The Stars were mine') сборка от Jun 6 2010 16:18:42
Writing library : libebml v1.0.0 + libmatroska v1.0.0
Video
ID : 1
Format : AVC
Format/Info : Advanced Video Codec
Format profile : [email protected]
Format settings, CABAC : No
Format settings, ReFrames : 1 frame
Muxing mode : Container [email protected]
Codec ID : V_MPEG4/ISO/AVC
Duration : 1h 32mn
Bit rate : 10.9 Mbps
Width : 1 920 pixels
Height : 1 080 pixels
Display aspect ratio : 16:9
Frame rate mode : Variable
Frame rate : 23.976 fps
Color space : YUV
Chroma subsampling : 4:2:0
Bit depth : 8 bits
Scan type : Progressive
Bits/(Pixel*Frame) : 0.219
Stream size : 7.02 GiB (94%)
Audio
ID : 2
Format : AC-3
Format/Info : Audio Coding 3
Mode extension : CM (complete main)
Codec ID : A_AC3
Duration : 1h 32mn
Bit rate mode : Constant
Bit rate : 448 Kbps
Channel(s) : 6 channels
Channel positions : Front: L C R, Side: L R, LFE
Sampling rate : 48.0 KHz
Stream size : 295 MiB (4%)
Title : Original
Language : Japanese

Скриншоты

 

mop1967

Post 26-Aug-2014 11:17

[Quote] 

есть кто живой на раздаче?

ktulhu228

Post 23-Jun-2014 20:05

[Quote] 

Спасибо за раздачу!

deeseven

Post 24-May-2014 12:32

[Quote] 

спасибо отличное видео

VADPRO

Post 30-Jan-2014 11:23

[Quote] 

Вопрос: а чем смотреть "ЭТО" видео?! Вместо видео одни косые полосы...

IgorekSh

Post 28-Feb-2014 14:53

[Quote] 

Развратный Подиум в 3Д №27 / 3D Catwalk Poison 27
Год производства: 2013 г.
Страна: Япония
Жанр: 3D, Dildos/Vibrators, Japanese Review, Beautiful Breast, All Sex, Pretty Face, Sexy Leg, Blowjobs
Продолжительность: 01:42:48
Студийный код фильма: CW3D2DBD-27
Студия: Catwalk
Цензура: Отсутствует
Язык: Японский
В ролях: Shiori Uehara
Описание: Продолжение серии о похождениях японских девиц. ~Hot Spring Cream Pie Trip~
Проверено на встроенном плеере ТВ Samsung UE55 D6100
Формат 3D: Half SideBySide / Горизонтальная анаморфная стереопара
Качество видео: BDRip
Тип HD видео: 1080p
Формат видео: MKV
Видео кодек: H.264/AVC
Аудио кодек: AC3
Видео: MPEG4 Video (H264) / 1920x1080 / 23.976 fps / 10.8 Mbps
Аудио: Japanese / Dolby AC3 / 6 ch / 48 kHz / 448 kbps
Релиз:

MediaInfo

Общее
Уникальный идентификатор : 194847902478485411742840832292245243027 (0x9296574BAC6A29849CE97D661AAC8493)
Полное имя : D:\Download\Adult content\3D Catwalk Poison 27 2012 BDRip halfSbS 1080p (IgorekSh) [torrent3d.net].MKV
Формат : Matroska
Версия формата : Version 2
Размер файла : 8,23 Гбайт
Продолжительность : 1 ч. 42 м.
Режим общего битрейта : Переменный
Общий поток : 11,5 Мбит/сек
Название фильма : torrent3d.net
Дата кодирования : UTC 2013-10-25 04:58:49
Программа кодирования : mkvmerge v5.2.0 ('I can't explain') built on Dec 18 2011 18:12:03
Библиотека кодирования : libebml v1.2.3 + libmatroska v1.3.0
Видео
Идентификатор : 1
Формат : AVC
Формат/Информация : Advanced Video Codec
Профиль формата : [email protected]
Параметр CABAC формата : Да
Параметр ReFrames формата : 2 кадра
Режим смешивания : Header stripping
Идентификатор кодека : V_MPEG4/ISO/AVC
Продолжительность : 1 ч. 42 м.
Вид битрейта : Переменный
Битрейт : 10,8 Мбит/сек
Максимальный битрейт : 16,5 Мбит/сек
Ширина : 1920 пикселей
Высота : 1080 пикселей
Соотношение сторон : 16:9
Режим частоты кадров : Постоянный
Частота кадров : 23,976 кадра/сек
Цветовое пространство : YUV
Субдискретизация насыщенности : 4:2:0
Битовая глубина : 8 бит
Тип развёртки : Прогрессивная
Бит/(Пиксели*Кадры) : 0.217
Размер потока : 7,74 Гбайт (94%)
Default : Да
Forced : Нет
Аудио
Идентификатор : 2
Формат : AC-3
Формат/Информация : Audio Coding 3
Расширение режима : CM (complete main)
Параметр Endianness формата : Big
Режим смешивания : Header stripping
Идентификатор кодека : A_AC3
Продолжительность : 1 ч. 42 м.
Вид битрейта : Постоянный
Битрейт : 448 Кбит/сек
Каналы : 6 каналов
Расположение каналов : Front: L C R, Side: L R, LFE
Частота : 48,0 КГц
Битовая глубина : 16 бит
Метод сжатия : С потерями
Размер потока : 329 Мбайт (4%)
Язык : Japanese
Default : Да
Forced : Нет
Меню
00:00:00.000 : en:(01)00:00:00:000
00:00:09.984 : en:(01)00:00:00:000
00:01:30.064 : en:(02)00:01:20:080
00:02:50.143 : en:(01)00:00:00:000
00:12:50.743 : en:(02)00:10:00:600
00:22:51.343 : en:(03)00:20:01:200
00:35:50.871 : en:(04)00:33:00:728
00:45:51.471 : en:(05)00:43:01:328
00:55:52.071 : en:(06)00:53:01:928
01:01:56.560 : en:(07)00:59:06:417
01:11:57.160 : en:(08)01:09:07:017
01:21:57.760 : en:(09)01:19:07:617
01:29:49.106 : en:(10)01:26:58:963
01:42:48.051 : en:(11)01:39:57:908

Скриншоты

IgorekSh

Post 10-Feb-2014 15:21

[Quote] 

Незабываемый первый анальный секс в 3Д / Memorable first anal sex 3D
Имя актрисы: Inna
Название ролика: Memorable first anal sex 3D
Подсайт и сайт: pornfilms3d.com
Год производства: 2013 г.
Подсайт и сайт: PornFilms3D.com
Жанр: Anal, Blowjob, Sex, 3D
Продолжительность: 00:21:05
В ролях: Inna & Mihail
Описание: Незабываемый первый анальный секс Инны в 3Д.
Проверено на встроенном плейере ТВ Samsung UE55 D6100
Релиз:
Тип HD видео: 1080p
Формат 3D: Half SideBySide / Горизонтальная анаморфная стереопара
Формат видео: MP4
Видео кодек: AVC
Аудио кодек: AAC
Формат видео: MP4
Video: MPEG4 Video (H264) 1920x1080 25fps 11999kbps
Audio: AAC 48000Hz stereo 192kbps

Скриншоты


MediaInfo

Общее
Полное имя : D:\Download\Adult content\Memorable first anal sex 3D 2013 halfSbS 1080p (IgorekSh) [torrent3d.net].mp4
Формат : MPEG-4
Профиль формата : JVT
Идентификатор кодека : avc1
Размер файла : 1,79 Гбайт
Продолжительность : 21 м.
Режим общего битрейта : Постоянный
Общий поток : 12,2 Мбит/сек
Дата кодирования : UTC 2013-07-07 19:46:08
Дата пометки : UTC 2013-07-07 19:46:08
Видео
Идентификатор : 1
Формат : AVC
Формат/Информация : Advanced Video Codec
Профиль формата : [email protected]
Параметр CABAC формата : Да
Параметр ReFrames формата : 2 кадра
Идентификатор кодека : avc1
Идентификатор кодека/Информация : Advanced Video Coding
Продолжительность : 21 м.
Вид битрейта : Постоянный
Битрейт : 12,0 Мбит/сек
Ширина : 1920 пикселей
Высота : 1080 пикселей
Соотношение сторон : 16:9
Режим частоты кадров : Постоянный
Частота кадров : 25,000 кадров/сек
Цветовое пространство : YUV
Субдискретизация насыщенности : 4:2:0
Битовая глубина : 8 бит
Тип развёртки : Прогрессивная
Бит/(Пиксели*Кадры) : 0.231
Размер потока : 1,76 Гбайт (98%)
Язык : English
Дата кодирования : UTC 2013-07-07 19:46:08
Дата пометки : UTC 2013-07-07 19:46:08
Аудио
Идентификатор : 2
Формат : AAC
Формат/Информация : Advanced Audio Codec
Профиль формата : LC
Идентификатор кодека : 40
Продолжительность : 21 м.
Вид битрейта : Постоянный
Битрейт : 192 Кбит/сек
Каналы : 2 канала
Расположение каналов : Front: L R
Частота : 48,0 КГц
Метод сжатия : С потерями
Задержка видео : 40 мс.
Размер потока : 28,9 Мбайт (2%)
Язык : English
Дата кодирования : UTC 2013-07-07 19:46:08
Дата пометки : UTC 2013-07-07 19:46:08

val.s.g

Post 08-Feb-2014 16:16

[Quote] 

СПАСИБО БОЛЬШОЕ.

макс303

Post 04-Feb-2014 01:33

[Quote] 

Нет скачивайте эту хрень, потом удалить будет трудно(( И комп из-за этой ху...ни будет тормозить

Dark Alice

Post 01-Feb-2014 22:32

[Quote] 

Поставь под спойлер скриншоты.
И другим раздачам тоже, не хочу везде недооформлено ставить.

IgorekSh

Post 10-Dec-2013 14:56

[Quote] 

3D Merci Beaucoup 01 / Мерси боку 01 в 3Д
Год производства: 2013 г.
Страна: Япония
Жанр: 3D, Dildos/Vibrators, Japanese Review, Beautiful Breast, All Sex, Pretty Face, Sexy Leg, Blowjobs
Продолжительность: 01:32:01
Студийный код фильма: MCB3DBD-01
Студия: Merci Beaucoup
Цензура: Отсутствует
Язык: Японский
В ролях: Rie Tachikawa
Описание: Fan of Asian fellatio? Check out this HOT Asian sex gallery featuring the most skilled cocksuckers in Asia.--Проверено на встроенном плейере ТВ Samsung UE55 D6100--Тип HD видео: 1080p
Формат 3D: Half SideBySide / Горизонтальная анаморфная стереопара
Качество видео: BDRip
Формат видео: MKV
Видео кодек: H.264/AVC
Аудио кодек: AC3
Видео: MPEG4 Video (H264) / 1920x1080 / 23.976 fps / 12.2 Mbps
Аудио: Japanese / Dolby AC3 / 2 ch / 48 kHz / 384 kbps
Релиз:

MediaInfo

Format : Matroska
File size : 8.26 GiB
Duration : 1h 32mn
Overall bit rate : 12.8 Mbps
Movie name : [torrent3d.ru]
Encoded date : UTC 2013-12-04 13:17:13
Writing application : mkvmerge v4.0.0 ('The Stars were mine') сборка от Jun 6 2010 16:18:42
Writing library : libebml v1.0.0 + libmatroska v1.0.0
Video
ID : 1
Format : AVC
Format/Info : Advanced Video Codec
Format profile : [email protected]
Format settings, CABAC : Yes
Format settings, ReFrames : 2 frames
Muxing mode : Container [email protected]
Codec ID : V_MPEG4/ISO/AVC
Duration : 1h 32mn
Bit rate : 12.2 Mbps
Width : 1 920 pixels
Height : 1 080 pixels
Display aspect ratio : 16:9
Frame rate : 23.976 fps
Color space : YUV
Chroma subsampling : 4:2:0
Bit depth : 8 bits
Scan type : Progressive
Bits/(Pixel*Frame) : 0.245
Stream size : 7.85 GiB (95%)
Audio
ID : 2
Format : AC-3
Format/Info : Audio Coding 3
Mode extension : CM (complete main)
Codec ID : A_AC3
Duration : 1h 32mn
Bit rate mode : Constant
Bit rate : 384 Kbps
Channel(s) : 2 channels
Channel positions : Front: L R
Sampling rate : 48.0 KHz
Stream size : 253 MiB (3%)
Language : Japanese
Menu
00:00:00.000 : en:(01)00:00:00:000
00:10:00.600 : en:(02)00:10:00:600
00:20:01.200 : en:(03)00:20:01:200
00:29:49.496 : en:(04)00:29:49:496
00:43:42.995 : en:(05)00:43:42:995
00:53:43.595 : en:(06)00:53:43:595
01:03:44.195 : en:(07)01:03:44:195
01:14:09.945 : en:(08)01:14:09:945
01:26:30.894 : en:(09)01:26:30:894
01:32:12.860 : en:(10)01:32:12:860

Скриншоты


IgorekSh

Post 01-Feb-2014 11:40

[Quote] 

Мерси боку 05 в 3Д / 3D Merci Beaucoup 05
Дата производства: 25.11.2013
Страна: Япония
Жанр: 3D, Dildos/Vibrators, Japanese Review, Beautiful Breast, All Sex, Pretty Face, Sexy Leg, Blowjobs
Продолжительность: 01:42:00
Студийный код фильма: MCB3DBD-05
Студия: Merci Beaucoup
Цензура: Отсутствует
Язык: Японский
В ролях: Rie Tachikawa
Описание: Fan of Asian fellatio? Check out this HOT Asian sex gallery featuring the most skilled cocksuckers in Asia. Hcup Rookie Office Girl: Rie Tachikawa.
Проверено на встроенном плейере ТВ Samsung UE55 D6100
Тип HD видео: 1080p
Формат 3D: Half SideBySide / Горизонтальная анаморфная стереопара
Качество видео: BDRip
Формат видео: MKV
Видео кодек: H.264/AVC
Аудио кодек: AC3
Видео: MPEG4 Video (H264) / 1920x1080p / 23.976 fps / 9 797 Kbps
Аудио: Japanese / Dolby AC3 / 2 ch / 48 kHz / 384 kbps
Релиз:

Скриншоты

 

IgorekSh

Post 03-Jan-2014 13:57

[Quote] 

S Model Collection 3D 13 / Супер Модели 3D 13
Год производства: 2012 г.
Страна: Япония
Жанр: Asian, Teen, Cream Pies, Handjob, Blowjob, Rape, Masturbation
Продолжительность: 01:39:35
Студийный код фильма: SM3D2DBD-13
Студия: Super Model Media
Цензура: Отсутствует
Язык: Японский
В ролях: Maika
Описание: Красивый японский трах.--Проверено на встроенном плейере ТВ Samsung UE55 D6100--Тип HD видео: 1080p
Формат 3D: Half OverUnder / Вертикальная анаморфная стереопара
Качество видео: BDRip
Формат видео: MKV
Видео кодек: H.264/AVC
Аудио кодек: AC3
Видео: MPEG4 Video (H264) / 1920x1080 / 23.976fps / 10.9 Mbps
Аудио: Japanese / Dolby AC3 / 6 ch / 48 kHz / 448 kbps
Релиз:

Скриншоты

 

and83082077

Post 15-Dec-2013 19:07

[Quote] 

Sodomie profonde pour une employée modèle 3D / Глубокая содомия для образцовой девушки 3Д
Год выпуска: 2012
Жанр: All Sex, Anal
Продолжительность: 00:19:16
Режиссер: Herve Bodilis
Студия: Marc Dorcel
В ролях: Cindy Dollar, Ian Scott
Описание: Прекрасная девушка читает перед сном книжку. И этим бы все и закончилось, если бы не стук в дверь. Немного колеблясь, она впускает молодого человека и превращается в страстную нимфоманку.
Качество: HDTVRip
Формат: AVI
Формат 3D: Half SideBySide / Горизонтальная анаморфная стереопара
Видео: 1920x1080 (1.78:1), 25 fps, ~12697 kbps avg, 0.24 bit/pixel - Video
Аудио: 44.100 kHz, Microsoft MPEG, 2 ch, ~128.00 kbps avg - Audio

Скриншоты




IgorekSh

Post 11-Dec-2013 20:24

[Quote] 

3D Merci Beaucoup 02 / Мерси боку 02 в 3Д
Год производства: 2013 г.
Страна: Япония
Жанр: 3D, Dildos/Vibrators, Japanese Review, Beautiful Breast, All Sex, Pretty Face, Sexy Leg, Blowjobs
Продолжительность: 01:27:32
Студийный код фильма: MCB3DBD-02
Студия: Merci Beaucoup
Цензура: Отсутствует
Язык: Японский
В ролях: Hina Misaki
Описание: Fan of Asian fellatio? Check out this HOT Asian sex gallery featuring the most skilled cocksuckers in Asia.--Проверено на встроенном плейере ТВ Samsung UE55 D6100--Тип HD видео: 1080p
Формат 3D: Half SideBySide / Горизонтальная анаморфная стереопара
Качество видео: BDRip
Формат видео: MKV
Видео кодек: H.264/AVC
Аудио кодек: AC3
Видео: MPEG4 Video (H264) / 1920x1080 / 23.976 fps / 12.2 Mbps
Аудио: Japanese / Dolby AC3 / 2 ch / 48 kHz / 384 kbps
Релиз:

MediaInfo

Format : Matroska
File size : 7.84 GiB
Duration : 1h 27mn
Overall bit rate : 12.8 Mbps
Movie name : [torrent3d.ru]
Encoded date : UTC 2013-12-04 13:38:21
Writing application : mkvmerge v4.0.0 ('The Stars were mine') сборка от Jun 6 2010 16:18:42
Writing library : libebml v1.0.0 + libmatroska v1.0.0
Video
ID : 1
Format : AVC
Format/Info : Advanced Video Codec
Format profile : [email protected]
Format settings, CABAC : Yes
Format settings, ReFrames : 2 frames
Muxing mode : Container [email protected]
Codec ID : V_MPEG4/ISO/AVC
Duration : 1h 27mn
Bit rate : 12.2 Mbps
Width : 1 920 pixels
Height : 1 080 pixels
Display aspect ratio : 16:9
Frame rate : 23.976 fps
Color space : YUV
Chroma subsampling : 4:2:0
Bit depth : 8 bits
Scan type : Progressive
Bits/(Pixel*Frame) : 0.245
Stream size : 7.45 GiB (95%)
Writing library : x264 core
Color primaries : BT.709-5, BT.1361, IEC 61966-2-4, SMPTE RP177
Transfer characteristics : BT.709-5, BT.1361
Matrix coefficients : BT.709-5, BT.1361, IEC 61966-2-4 709, SMPTE RP177
Audio
ID : 2
Format : AC-3
Format/Info : Audio Coding 3
Mode extension : CM (complete main)
Codec ID : A_AC3
Duration : 1h 27mn
Bit rate mode : Constant
Bit rate : 384 Kbps
Channel(s) : 2 channels
Channel positions : Front: L R
Sampling rate : 48.0 KHz
Stream size : 240 MiB (3%)
Language : Japanese
Menu
00:00:00.000 : en:(01)00:00:00:000
00:10:00.600 : en:(02)00:10:00:600
00:20:01.200 : en:(03)00:20:01:200
00:26:00.892 : en:(04)00:26:00:892
00:37:22.573 : en:(05)00:37:22:573
00:47:23.173 : en:(06)00:47:23:173
00:57:23.773 : en:(07)00:57:23:773
01:06:54.385 : en:(08)01:06:54:385
01:16:54.985 : en:(09)01:16:54:985
01:27:33.289 : en:(10)01:27:33:289

Скриншоты

 

IgorekSh

Post 04-Dec-2013 19:35

[Quote] 

Kirari 3D 05 / Кирари 05 в 3Д
Год производства: 2013 г.
Страна: Япония
Жанр: 3D, Dildos/Vibrators, Japanese Review, Beautiful Breast, All Sex, Pretty Face, Sexy Leg, Blowjobs
Продолжительность: 01:37:41
Студийный код фильма: MK3D2DBD-04
Студия: MUGEN Entertainment
Цензура: Отсутствует
Язык: Японский
В ролях: Mikuru Shiina
Описание: Gorgeous body AV idol, Mikuru Shiina gets creampied. --Проверено на встроенном плейере ТВ Samsung UE55 D6100--Тип HD видео: 1080p
Формат 3D: Half SideBySide / Горизонтальная анаморфная стереопара
Качество видео: BDRip
Формат видео: MKV
Видео кодек: H.264/AVC
Аудио кодек: AC3
Видео: MPEG4 Video (H264) / 1920x1080 / 23.976 fps / 12.2 Mbps
Аудио: Japanese / Dolby AC3 / 2 ch / 48 kHz / 384 kbps
Релиз:

MediaInfo

Format : Matroska
File size : 8.14 GiB
Duration : 1h 30mn
Overall bit rate : 12.8 Mbps
Movie name : [torrent3d.ru]
Encoded date : UTC 2013-12-03 10:37:41
Writing application : mkvmerge v4.0.0 ('The Stars were mine') сборка от Jun 6 2010 16:18:42
Writing library : libebml v1.0.0 + libmatroska v1.0.0
Video
ID : 1
Format : AVC
Format/Info : Advanced Video Codec
Format profile : [email protected]
Format settings, CABAC : Yes
Format settings, ReFrames : 2 frames
Muxing mode : Container [email protected]
Codec ID : V_MPEG4/ISO/AVC
Duration : 1h 30mn
Bit rate : 12.2 Mbps
Width : 1 920 pixels
Height : 1 080 pixels
Display aspect ratio : 16:9
Frame rate : 23.976 fps
Color space : YUV
Chroma subsampling : 4:2:0
Bit depth : 8 bits
Scan type : Progressive
Bits/(Pixel*Frame) : 0.245
Stream size : 7.73 GiB (95%)
Writing library : x264 core
Color primaries : BT.709-5, BT.1361, IEC 61966-2-4, SMPTE RP177
Transfer characteristics : BT.709-5, BT.1361
Matrix coefficients : BT.709-5, BT.1361, IEC 61966-2-4 709, SMPTE RP177
Audio
ID : 2
Format : AC-3
Format/Info : Audio Coding 3
Mode extension : CM (complete main)
Codec ID : A_AC3
Duration : 1h 30mn
Bit rate mode : Constant
Bit rate : 384 Kbps
Channel(s) : 2 channels
Channel positions : Front: L R
Sampling rate : 48.0 KHz
Stream size : 250 MiB (3%)
Language : Japanese
Menu
00:00:00.000 : en:(01)00:00:00:000
00:10:00.600 : en:(02)00:10:00:600
00:20:01.200 : en:(03)00:20:01:200
00:30:00.423 : en:(04)00:30:00:423
00:40:01.023 : en:(05)00:40:01:023
00:48:50.510 : en:(06)00:48:50:510
00:58:51.110 : en:(07)00:58:51:110
01:08:51.710 : en:(08)01:08:51:710
01:19:48.283 : en:(09)01:19:48:283
01:30:55.616 : en:(10)01:30:55:616

Скриншоты


           

IgorekSh

Post 18-Nov-2013 14:36

[Quote] 

S Model Collection 3D 13 / Супер Модели 3D 13
Год производства: 2012 г.
Страна: Япония
Жанр: Asian, Teen, Cream Pies, Handjob, Blowjob, Rape, Masturbation
Продолжительность: 01:39:35
Студийный код фильма: SM3D2DBD 13
Студия: Super Model Media
Цензура: Отсутствует
Язык: Японский
В ролях: Hina Maeda
Описание: Взрывная бестия. ~This Bitch Blows Up!~--Проверено на встроенном плейере ТВ Samsung UE55 D6100--Тип HD видео: 1080p
Формат 3D: Half SideBySide / Горизонтальная анаморфная стереопара
Качество видео: BDRip
Формат видео: MKV
Видео кодек: H.264/AVC
Аудио кодек: AC3
Видео: MPEG4 Video (H264) / 1920x1080 / 23.98fps / 9267 kbps
Аудио: Japanese / Dolby AC3 / 48000Hz / stereo / 384kbps
Релиз:

MediaInfo

Общее
Уникальный идентификатор : 210392627760276544982466927986419782513 (0x9E48256C96BAB00089793251DFD55371)
Полное имя : D:\Download\Adult content\Smodel Vol.13 3D 2012 BDRip halfSbS 1080p (IgorekSh).mkv
Формат : Matroska
Версия формата : Version 2
Размер файла : 6,85 Гбайт
Продолжительность : 1 ч. 39 м.
Режим общего битрейта : Переменный
Общий поток : 9847 Кбит/сек
Название фильма : SM3D2DBD_013_3DPron.net
Дата кодирования : UTC 2013-07-09 16:48:45
Программа кодирования : DVDFab
Библиотека кодирования : libebml v0.7.8 + libmatroska v0.8.1
Видео
Идентификатор : 1
Формат : AVC
Формат/Информация : Advanced Video Codec
Профиль формата : [email protected]
Параметр CABAC формата : Да
Параметр ReFrames формата : 2 кадра
Идентификатор кодека : V_MPEG4/ISO/AVC
Продолжительность : 1 ч. 39 м.
Вид битрейта : Переменный
Битрейт : 9267 Кбит/сек
Максимальный битрейт : 14,2 Мбит/сек
Ширина : 1920 пикселей
Высота : 1080 пикселей
Соотношение сторон : 16:9
Режим частоты кадров : Постоянный
Частота кадров : 23,976 кадра/сек
Цветовое пространство : YUV
Субдискретизация насыщенности : 4:2:0
Битовая глубина : 8 бит
Тип развёртки : Прогрессивная
Бит/(Пиксели*Кадры) : 0.186
Размер потока : 6,45 Гбайт (94%)
Default : Да
Forced : Нет
Аудио
Идентификатор : 2
Формат : AC-3
Формат/Информация : Audio Coding 3
Расширение режима : CM (complete main)
Параметр Endianness формата : Big
Идентификатор кодека : A_AC3
Продолжительность : 1 ч. 39 м.
Вид битрейта : Постоянный
Битрейт : 384 Кбит/сек
Каналы : 2 канала
Расположение каналов : Front: L R
Частота : 48,0 КГц
Битовая глубина : 16 бит
Метод сжатия : С потерями
Размер потока : 274 Мбайт (4%)
Язык : Japanese
Default : Да
Forced : Нет
Меню
00:00:00.000 : en:(01)00:00:00:000
00:05:00.300 : en:(02)00:05:00:300
00:10:00.600 : en:(03)00:10:00:600
00:15:00.900 : en:(04)00:15:00:900
00:20:01.200 : en:(05)00:20:01:200
00:25:01.500 : en:(06)00:25:01:500
00:32:43.920 : en:(07)00:32:43:920
00:37:44.220 : en:(08)00:37:44:220
00:42:44.520 : en:(09)00:42:44:520
00:47:44.820 : en:(10)00:47:44:820
00:52:45.120 : en:(11)00:52:45:120
00:57:45.420 : en:(12)00:57:45:420
01:01:49.747 : en:(13)01:01:49:747
01:06:50.047 : en:(14)01:06:50:047
01:11:50.347 : en:(15)01:11:50:347
01:16:50.647 : en:(16)01:16:50:647
01:21:50.947 : en:(17)01:21:50:947
01:23:58.992 : en:(18)01:23:58:992
01:28:59.292 : en:(19)01:28:59:292
01:33:59.592 : en:(20)01:33:59:592

Скриншоты


 

IgorekSh

Post 16-Nov-2013 18:19

[Quote] 

S Model Collection 3D 11 / Супер Модели 3D 11
Год производства: 2012 г.
Страна: Япония
Жанр: Asian, Teen, Cream Pies, Handjob, Blowjob, Rape, Masturbation
Продолжительность: 01:50:08
Студийный код фильма: SM3D2DBD 11
Студия: Super Model Media
Цензура: Отсутствует
Язык: Японский
В ролях: Sana Anzyu, Yui Hatano, Megu Kamijyo, Nozomi Hazuki, Hinata Tachibana, Maria Ozawa, Megumi Shino, Mai Hanano, Riona Suzune, AIKA, Eririka Katagiri
Описание: Красивый японский трах.--Проверено на встроенном плейере ТВ Samsung UE55 D6100--Тип HD видео: 1080p
Формат 3D: Half OverUnder / Вертикальная анаморфная стереопара
Качество видео: BDRip
Формат видео: MKV
Видео кодек: H.264/AVC
Аудио кодек: AC3
Видео: MPEG4 Video (H264) / 1920x1080 / 23.976fps / 10.9 Mbps
Аудио: Japanese / Dolby AC3 / 6 ch / 48 kHz / 448 kbps
Релиз:

Скриншоты

 

IgorekSh

Post 15-Nov-2013 18:46

[Quote] 

S Model Collection 3D 10 / Супер Модели 3D 10
Год производства: 2012 г.
Страна: Япония
Жанр: Asian, Teen, Cream Pies, Handjob, Blowjob, Rape, Masturbation
Продолжительность: 01:47:16
Студийный код фильма: SM3D2DBD 10
Студия: Super Model Media
Цензура: Отсутствует
Язык: Японский
В ролях: Maomi Nagasawa
Описание: Красивый японский трах.--Проверено на встроенном плейере ТВ Samsung UE55 D6100--Тип HD видео: 1080p
Формат 3D: Half OverUnder / Вертикальная анаморфная стереопара
Качество видео: BDRip
Формат видео: MKV
Видео кодек: H.264/AVC
Аудио кодек: AC3
Видео: MPEG4 Video (H264) / 1920x1080 / 23.976fps / 10.9 Mbps
Аудио: Japanese / Dolby AC3 / 6 ch / 48 kHz / 448 kbps
Релиз:

Скриншоты


 

IgorekSh

Post 15-Nov-2013 18:39

[Quote] 

S Model Collection 3D 09 / Супер Модели 3D 09
Год производства: 2012 г.
Страна: Япония
Жанр: Asian, Teen, Cream Pies, Handjob, Blowjob, Rape, Masturbation
Продолжительность: 01:36:20
Студийный код фильма: SM3D2DBD 07
Студия: Super Model Media
Цензура: Отсутствует
Язык: Японский
В ролях: Izumi Manaka
Описание: Красивый японский трах.--Проверено на встроенном плейере ТВ Samsung UE55 D6100--Тип HD видео: 1080p
Формат 3D: Half OverUnder / Вертикальная анаморфная стереопара
Качество видео: BDRip
Формат видео: MKV
Видео кодек: H.264/AVC
Аудио кодек: AC3
Видео: MPEG4 Video (H264) / 1920x1080 / 23.976fps / 10.9 Mbps
Аудио: Japanese / Dolby AC3 / 6 ch / 48 kHz / 448 kbps
Релиз:

Скриншоты


         

IgorekSh

Post 15-Nov-2013 18:33

[Quote] 

S Model Collection 3D 08 / Супер Модели 3D 08
Год производства: 2012 г.
Страна: Япония
Жанр: Asian, Teen, Cream Pies, Handjob, Blowjob, Rape, Masturbation
Продолжительность: 01:49:19
Студийный код фильма: SM3D2DBD 08
Студия: Super Model Media
Цензура: Отсутствует
Язык: Японский
В ролях: Yuki Touma
Описание: Красивый японский трах.--Проверено на встроенном плейере ТВ Samsung UE55 D6100--Тип HD видео: 1080p
Формат 3D: Half OverUnder / Вертикальная анаморфная стереопара
Качество видео: BDRip
Формат видео: MKV
Видео кодек: H.264/AVC
Аудио кодек: AC3
Видео: MPEG4 Video (H264) / 1920x1080 / 23.976fps / 10.9 Mbps
Аудио: Japanese / Dolby AC3 / 6 ch / 48 kHz / 448 kbps
Релиз:

Скриншоты


 

IgorekSh

Post 15-Nov-2013 18:28

[Quote] 

S Model Collection 3D 07 / Супер Модели 3D 07
Год производства: 2012 г.
Страна: Япония
Жанр: Asian, Teen, Cream Pies, Handjob, Blowjob, Rape, Masturbation
Продолжительность: 01:27:30
Студийный код фильма: SM3D2DBD 07
Студия: Super Model Media
Цензура: Отсутствует
Язык: Японский
В ролях: Hina Maeda
Описание: Красивый японский трах.--Проверено на встроенном плейере ТВ Samsung UE55 D6100--Тип HD видео: 1080p
Формат 3D: Half OverUnder / Вертикальная анаморфная стереопара
Качество видео: BDRip
Формат видео: MKV
Видео кодек: H.264/AVC
Аудио кодек: AC3
Видео: MPEG4 Video (H264) / 1920x1080 / 23.976fps / 10.9 Mbps
Аудио: Japanese / Dolby AC3 / 6 ch / 48 kHz / 448 kbps
Релиз:

Скриншоты


 

IgorekSh

Post 29-Oct-2013 18:31

[Quote] 

S Model Collection 3D 06 / Супер Модели 3D 06
Год производства: 2011 г.
Страна: Япония
Жанр: Asian, Teen, Cream Pies, Handjob, Blowjob, Rape, Masturbation
Продолжительность: 01:24:57
Студийный код фильма: SM3D2DBD 06
Студия: Super Model Media
Цензура: Отсутствует
Язык: Японский
В ролях: Hina Maeda
Описание: Красивый японский трах.--Проверено на встроенном плейере ТВ Samsung UE55 D6100--Тип HD видео: 1080p
Формат 3D: Half OverUnder / Вертикальная анаморфная стереопара
Качество видео: BDRip
Формат видео: MKV
Видео кодек: H.264/AVC
Аудио кодек: AC3
Видео: MPEG4 Video (H264) / 1920x1080 / 23.976fps / 10.9 Mbps
Аудио: Japanese / Dolby AC3 / 6 ch / 48 kHz / 448 kbps
Релиз:

MediaInfo

Format : Matroska
File size : 6.89 GiB
Duration : 1h 24mn
Overall bit rate : 11.6 Mbps
Movie name : [torrent3d.ru]
Encoded date : UTC 2013-09-21 06:38:55
Writing application : mkvmerge v4.0.0 ('The Stars were mine') сборка от Jun 6 2010 16:18:42
Writing library : libebml v1.0.0 + libmatroska v1.0.0
Video
ID : 1
Format : AVC
Format/Info : Advanced Video Codec
Format profile : [email protected]
Format settings, CABAC : No
Format settings, ReFrames : 2 frames
Muxing mode : Container [email protected]
Codec ID : V_MPEG4/ISO/AVC
Duration : 1h 24mn
Bit rate : 10.9 Mbps
Width : 1 920 pixels
Height : 1 080 pixels
Display aspect ratio : 16:9
Frame rate mode : Variable
Frame rate : 23.976 fps
Color space : YUV
Chroma subsampling : 4:2:0
Bit depth : 8 bits
Scan type : Progressive
Bits/(Pixel*Frame) : 0.220
Stream size : 6.49 GiB (94%)
Audio
ID : 2
Format : AC-3
Format/Info : Audio Coding 3
Mode extension : CM (complete main)
Codec ID : A_AC3
Duration : 1h 24mn
Bit rate mode : Constant
Bit rate : 448 Kbps
Channel(s) : 6 channels
Channel positions : Front: L C R, Side: L R, LFE
Sampling rate : 48.0 KHz
Stream size : 272 MiB (4%)
Title : Original
Language : Japanese

Скриншоты


 

IgorekSh

Post 11-Oct-2013 18:24

[Quote] 

S Model Collection 3D 04 / Супер Модели 3D 04
Год производства: 2011 г.
Страна: Япония
Жанр: Asian, Teen, Cream Pies, Handjob, Blowjob, Rape, Masturbation
Продолжительность: 01:33:52
Студийный код фильма: SM3D2DBD 04
Студия: Super Model Media
Цензура: Отсутствует
Язык: Японский
В ролях: Riina Fujimoto
Описание: Красивый японский трах.--Проверено на встроенном плейере ТВ Samsung UE55 D6100--Тип HD видео: 1080p
Формат 3D: Half OverUnder / Вертикальная анаморфная стереопара
Качество видео: BDRip
Формат видео: MKV
Видео кодек: H.264/AVC
Аудио кодек: AC3
Видео: MPEG4 Video (H264) / 1920x1080 / 23.976fps / 10.9 Mbps
Аудио: Japanese / Dolby AC3 / 6 ch / 48 kHz / 448 kbps
Релиз:

MediaInfo

Format : Matroska
File size : 7.58 GiB
Duration : 1h 33mn
Overall bit rate : 11.6 Mbps
Movie name : [torrent3d.ru]
Encoded date : UTC 2013-09-20 16:21:44
Writing application : mkvmerge v4.0.0 ('The Stars were mine') сборка от Jun 6 2010 16:18:42
Writing library : libebml v1.0.0 + libmatroska v1.0.0
Video
ID : 1
Format : AVC
Format/Info : Advanced Video Codec
Format profile : [email protected]
Format settings, CABAC : No
Format settings, ReFrames : 2 frames
Muxing mode : Container [email protected]
Codec ID : V_MPEG4/ISO/AVC
Duration : 1h 33mn
Bit rate : 10.9 Mbps
Width : 1 920 pixels
Height : 1 080 pixels
Display aspect ratio : 16:9
Frame rate mode : Variable
Frame rate : 23.976 fps
Color space : YUV
Chroma subsampling : 4:2:0
Bit depth : 8 bits
Scan type : Progressive
Bits/(Pixel*Frame) : 0.219
Stream size : 7.13 GiB (94%)
Audio
ID : 2
Format : AC-3
Format/Info : Audio Coding 3
Mode extension : CM (complete main)
Codec ID : A_AC3
Duration : 1h 33mn
Bit rate mode : Constant
Bit rate : 448 Kbps
Channel(s) : 6 channels
Channel positions : Front: L C R, Side: L R, LFE
Sampling rate : 48.0 KHz
Stream size : 301 MiB (4%)
Title : Original
Language : Japanese

Скриншоты

 

IgorekSh

Post 11-Oct-2013 18:11

[Quote] 

S Model Collection 3D 03 / Супер Модели 3D 03
Год производства: 2011 г.
Страна: Япония
Жанр: Asian, Teen, Cream Pies, Handjob, Blowjob, Rape, Masturbation
Продолжительность: 01:23:06
Студийный код фильма: SM3D2DBD 03
Студия: Super Model Media
Цензура: Отсутствует
Язык: Японский
В ролях: Tiara Ayase
Описание: Мужичок трахает девушку в белых чулочках, а затем все повторяется, только мужичков становится больше.--Проверено на встроенном плейере ТВ Samsung UE55 D6100--Тип HD видео: 1080p
Формат 3D: Half OverUnder / Вертикальная анаморфная стереопара
Качество видео: BDRip
Формат видео: MKV
Видео кодек: H.264/AVC
Аудио кодек: AC3
Видео: MPEG4 Video (H264) / 1920x1080 / 23.976fps / 11 Mbps
Аудио: Japanese / Dolby AC3 / 6 ch / 48 kHz / 448 kbps
Релиз:

MediaInfo

Format : Matroska
File size : 6.75 GiB
Duration : 1h 23mn
Overall bit rate : 11.6 Mbps
Movie name : [torrent3d.ru]
Encoded date : UTC 2013-09-20 07:06:13
Writing application : mkvmerge v4.0.0 ('The Stars were mine') сборка от Jun 6 2010 16:18:42
Writing library : libebml v1.0.0 + libmatroska v1.0.0
Video
ID : 1
Format : AVC
Format/Info : Advanced Video Codec
Format profile : [email protected]
Format settings, CABAC : No
Format settings, ReFrames : 2 frames
Muxing mode : Container [email protected]
Codec ID : V_MPEG4/ISO/AVC
Duration : 1h 23mn
Bit rate : 11.0 Mbps
Width : 1 920 pixels
Height : 1 080 pixels
Display aspect ratio : 16:9
Frame rate mode : Variable
Frame rate : 23.976 fps
Color space : YUV
Chroma subsampling : 4:2:0
Bit depth : 8 bits
Scan type : Progressive
Bits/(Pixel*Frame) : 0.220
Stream size : 6.36 GiB (94%)
Audio
ID : 2
Format : AC-3
Format/Info : Audio Coding 3
Mode extension : CM (complete main)
Codec ID : A_AC3
Duration : 1h 23mn
Bit rate mode : Constant
Bit rate : 448 Kbps
Channel(s) : 6 channels
Channel positions : Front: L C R, Side: L R, LFE
Sampling rate : 48.0 KHz
Stream size : 266 MiB (4%)
Title : Original
Language : Japanese

Скриншоты

IgorekSh

Post 07-Oct-2013 17:34

[Quote] 

S Model Collection 3D 02 / Супер Модели 3D 02
Год производства: 2011 г.
Страна: Япония
Жанр: Asian, Teen, Cream Pies, Handjob, Blowjob, Rape, Masturbation
Продолжительность: 01:48:57
Студийный код фильма: SM3D2DBD 02
Студия: Super Model Media
Цензура: Отсутствует
Язык: Японский
В ролях: Miku Airi
Описание: Девушка купается с бассейне, затем удовлетворяет себя вибраторами, ну а потом ее ждет дикий трах.--Проверено на встроенном плейере ТВ Samsung UE55 D6100--Тип HD видео: 1080p
Формат 3D: Half OverUnder / Вертикальная анаморфная стереопара
Качество видео: BDRip
Формат видео: MKV
Видео кодек: H.264/AVC
Аудио кодек: AC3
Видео: MPEG4 Video (H264) / 1920x1080 / 23.976fps / 10.9 Mbps
Аудио: Japanese / Dolby AC3 / 6 ch / 48 kHz / 448 kbps
Релиз:

MediaInfo

Format : Matroska
File size : 8.80 GiB
Duration : 1h 48mn
Overall bit rate : 11.6 Mbps
Movie name : [torrent3d.ru]
Encoded date : UTC 2013-09-19 23:55:57
Writing application : mkvmerge v4.0.0 ('The Stars were mine') сборка от Jun 6 2010 16:18:42
Writing library : libebml v1.0.0 + libmatroska v1.0.0
Video
ID : 1
Format : AVC
Format/Info : Advanced Video Codec
Format profile : [email protected]
Format settings, CABAC : No
Format settings, ReFrames : 2 frames
Muxing mode : Container [email protected]
Codec ID : V_MPEG4/ISO/AVC
Duration : 1h 48mn
Bit rate : 10.9 Mbps
Width : 1 920 pixels
Height : 1 080 pixels
Display aspect ratio : 16:9
Frame rate mode : Variable
Frame rate : 23.976 fps
Color space : YUV
Chroma subsampling : 4:2:0
Bit depth : 8 bits
Scan type : Progressive
Bits/(Pixel*Frame) : 0.219
Stream size : 8.29 GiB (94%)
Audio
ID : 2
Format : AC-3
Format/Info : Audio Coding 3
Mode extension : CM (complete main)
Codec ID : A_AC3
Duration : 1h 48mn
Bit rate mode : Constant
Bit rate : 448 Kbps
Channel(s) : 6 channels
Channel positions : Front: L C R, Side: L R, LFE
Sampling rate : 48.0 KHz
Stream size : 349 MiB (4%)
Title : Original
Language : Japanese

Скриншоты

 
 

Current time is: 23-Oct 09:13

All times are UTC + 3