Search found 29 matches

Search on other PornSites
Author Message

Hiroshi Ikari

Post 19-Oct-2015 14:40

[Quote] 

Это не анаглиф. Или может я не так смотрю?
это не стереопара а анаглиф
на обложке анаглиф, а видео - вертикальная стереопара.

Dark Alice

Post 17-Jun-2013 13:22

[Quote] 

Batpic.com - Not found (404)

Brainiak

Post 03-Mar-2013 11:07

[Quote] 

это не стереопара а анаглиф

Гаврил68

Post 13-Feb-2013 19:56

[Quote] 

у меня даже очков такив нет хотя телик крут

Мареман

Post 15-Aug-2012 13:29

[Quote] 

Спасибочки!!!

Seraph2012

Post 21-Jun-2012 12:23

[Quote] 

Это не анаглиф. Или может я не так смотрю?

exter

Post 26-May-2012 22:52

[Quote] 

3D Nessa Devil (Hot Nessa Devil)
Год выпуска: 2011
Жанр: Big tits,oral,doggystyle
Продолжительность: 00:13:08
Описание: Nessa Devil gets fucked by her boyfriend on top of a building.
Качество: HD 1080p
Видео: Video: MPEG4 Video (H264) 1920x1080 25.00fps [Video]
Аудио: Audio: AAC 44100Hz stereo 1411kbps

Скриншоты


4epu4ilo

Post 26-Aug-2015 21:11

[Quote] 

Дайте скорости!!!!Так буду пять часов качать!!!!Мля!

Dark Alice

Post 17-Jun-2013 13:21

[Quote] 

Batpic.com - Not found (404)

nikolaich52rus

Post 16-Jun-2013 17:20

[Quote] 

Скорости ОООООООО

Котяра

Post 17-Feb-2013 04:15

[Quote] 

Да посмотрим.

Гаврил68

Post 13-Feb-2013 19:43

[Quote] 

сейчас глянем

дИМА2.05

Post 11-Dec-2012 11:13

[Quote] 

Дайти скорости bc sos bc

ananova

Post 29-Jun-2012 06:08

[Quote] 

member3dporn.com Siterip
Год выпуска: 2010
Страна: США
Жанр: Dildo, strip, lesbo, solo
Формат: WMV
Видео: Windows Media Video 9 / 3840x1080 / 25.00fps / ~7000-8000 Kbps
Аудио: Windows Media Audio / 44100Hz / stereo / 128 Kbps

Mafiozo

Post 07-Sep-2013 13:13

[Quote] 

Veronica Diamond 3D (Blowjob by fallen angel 3D) -

Имя актрисы: Veronica Diamond
Название ролика: Blowjob by fallen angel 3D
Подсайт и сайт: POVCentral.com
Год производства: 2011 г.
Жанр: Blowjob, 3D
Продолжительность: 00:06:23
В ролях: Veronica Diamond
Описание: Ангелский минет от Veronica Diamond.
Тип HD видео: 2160p
Формат 3D: OverUnder / Вертикальная стереопара
Формат видео: MKV
Видео кодек: VC-1
Аудио кодек: WMA
Видео: VC-1 / 1920x2160 / 25.00fps / 8026 kbps
Аудио: Windows Media Audio / 44100Hz / stereo / 192 kbps
--------------------------------------------------------------------------------
Вертикальная стереопара (НЕ анаморфная), на встроенном в ТВ плейере НЕ пойдёт

MediaInfo

Общее
Уникальный идентификатор : 284518366666925052769596317155314396436 (0xD60C3E847E75FEFF5E398F1BF0E06D14)
Полное имя : D:\Download\Adult content\[povcentral]veronica_diamond_3d.mkv
Формат : Matroska
Версия формата : Version 2
Размер файла : 383 Мбайт
Продолжительность : 6 м. 23 с.
Общий поток : 8385 Кбит/сек
Дата кодирования : UTC 2012-11-05 09:50:19
Программа кодирования : dsmux
Библиотека кодирования : Haali DirectShow Matroska Muxer 1.11.288.0
Видео
Идентификатор : 2
Формат : VC-1
Идентификатор кодека : V_MS/VFW/FOURCC / WMV3
Идентификатор кодека/Информация : Windows Media Video 9
Идентификатор кодека/Подсказка : WMV3
Продолжительность : 6 м. 23 с.
Битрейт : 8026 Кбит/сек
Ширина : 1920 пикселей
Высота : 2160 пикселей
Соотношение сторон : 0,889
Режим частоты кадров : Постоянный
Частота кадров : 25,000 кадров/сек
Битовая глубина : 8 бит
Метод сжатия : С потерями
Бит/(Пиксели*Кадры) : 0.077
Размер потока : 367 Мбайт (96%)
Язык : English
Default : Нет
Forced : Нет
Аудио
Идентификатор : 1
Формат : WMA
Версия формата : Version 2
Идентификатор кодека : A_MS/ACM / 161
Идентификатор кодека/Информация : Windows Media Audio
Продолжительность : 6 м. 23 с.
Битрейт : 192 Кбит/сек
Каналы : 2 канала
Частота : 48,0 КГц
Битовая глубина : 16 бит
Размер потока : 8,78 Мбайт (2%)
Язык : English
Default : Нет
Forced : Нет
-
---

Скриншоты





Mafiozo

Post 07-Sep-2013 13:09

[Quote] 

Welli Sailor 3D (aka Angel Wicky, Wellie) (Blowjob by Welli Sailor 3D) -

Имя актрисы: Welli Sailor (aka Angel Wicky, Wellie)
Название ролика: Blowjob by Welli Sailor
Подсайт и сайт: POVCentral.com
Год производства: 2011 г.
Жанр: Blowjob, Tittyfuck, 3D
Продолжительность: 00:07:02
В ролях: Welli Sailor
Описание: Минет от Welli Sailor.
Тип HD видео: 1080p
Формат 3D: OverUnder / Вертикальная стереопара
Формат видео: MKV
Видео кодек: VC-1
Аудио кодек: WMA
Видео: VC-1 / 960x1080 / 25.00fps / 3998 kbps
Аудио: Windows Media Audio / 44100Hz / stereo / 128 kbps

MediaInfo

Общее
Уникальный идентификатор : 201519785446958613636864581325346578221 (0x979B4C85E1D1F01DB241E8C558481F2D)
Полное имя : D:\Download\Adult content\[povcentral]welli_sailor_3d.mkv
Формат : Matroska
Версия формата : Version 2
Размер файла : 212 Мбайт
Продолжительность : 7 м. 2 с.
Общий поток : 4210 Кбит/сек
Дата кодирования : UTC 2012-11-05 09:50:41
Программа кодирования : dsmux
Библиотека кодирования : Haali DirectShow Matroska Muxer 1.11.288.0
Видео
Идентификатор : 2
Формат : VC-1
Профиль формата : [email protected]
Идентификатор кодека : V_MS/VFW/FOURCC / WVC1
Идентификатор кодека/Подсказка : Microsoft
Продолжительность : 7 м. 2 с.
Битрейт : 3998 Кбит/сек
Ширина : 960 пикселей
Высота : 1080 пикселей
Соотношение сторон : 1,185
Соотношение сторон в оригинале : 0,889
Режим частоты кадров : Постоянный
Частота кадров : 25,000 кадров/сек
Субдискретизация насыщенности : 4:2:0
Битовая глубина : 8 бит
Тип развёртки : Прогрессивная
Метод сжатия : С потерями
Бит/(Пиксели*Кадры) : 0.154
Размер потока : 201 Мбайт (95%)
Язык : English
Default : Нет
Forced : Нет
Аудио
Идентификатор : 1
Формат : WMA
Версия формата : Version 2
Идентификатор кодека : A_MS/ACM / 161
Идентификатор кодека/Информация : Windows Media Audio
Продолжительность : 7 м. 2 с.
Битрейт : 128 Кбит/сек
Каналы : 2 канала
Частота : 44,1 КГц
Битовая глубина : 16 бит
Размер потока : 6,45 Мбайт (3%)
Язык : English
Default : Нет
Forced : Нет
-
---

Скриншоты





Mafiozo

Post 07-Sep-2013 13:04

[Quote] 

Bella 3D (Blowjob in 3D) -

Имя актрисы: Bella
Название ролика: Blowjob in 3D
Подсайт и сайт: POVCentral.com
Год производства: 2011 г.
Жанр: Blowjob, Tittyfuck, 3D
Продолжительность: 00:04:44
В ролях: Bella
Описание: Быстрый минет от Бэллы.
Тип HD видео: 2160p
Формат 3D: OverUnder / Вертикальная стереопара
Формат видео: MKV
Видео кодек: VC-1
Аудио кодек: WMA
Видео: VC-1 / 1920x2160 / 25.00fps / 6119 kbps
Аудио: Windows Media Audio / 44100Hz / stereo / 96 kbps
--------------------------------------------------------------------------------
Вертикальная стереопара (НЕ анаморфная), на встроенном в ТВ плейере НЕ пойдёт

MediaInfo

Общее
Уникальный идентификатор : 232338778027557750860903131979840742282 (0xAECAD22C0B5125BD27683A06FD63E38A)
Полное имя : D:\Download\Adult content\[povcentral]bella_blowjob_3d(3dtorrent.xxx).mkv
Формат : Matroska
Версия формата : Version 2
Размер файла : 215 Мбайт
Продолжительность : 4 м. 44 с.
Общий поток : 6342 Кбит/сек
Дата кодирования : UTC 2012-11-05 09:50:06
Программа кодирования : dsmux
Библиотека кодирования : Haali DirectShow Matroska Muxer 1.11.288.0
Видео
Идентификатор : 2
Формат : VC-1
Идентификатор кодека : V_MS/VFW/FOURCC / WMV3
Идентификатор кодека/Информация : Windows Media Video 9
Идентификатор кодека/Подсказка : WMV3
Продолжительность : 4 м. 44 с.
Битрейт : 6119 Кбит/сек
Ширина : 1920 пикселей
Высота : 2160 пикселей
Соотношение сторон : 0,889
Режим частоты кадров : Постоянный
Частота кадров : 25,000 кадров/сек
Битовая глубина : 8 бит
Метод сжатия : С потерями
Бит/(Пиксели*Кадры) : 0.059
Размер потока : 207 Мбайт (96%)
Язык : English
Default : Нет
Forced : Нет
Аудио
Идентификатор : 1
Формат : WMA
Версия формата : Version 2
Идентификатор кодека : A_MS/ACM / 161
Идентификатор кодека/Информация : Windows Media Audio
Продолжительность : 4 м. 44 с.
Битрейт : 96,0 Кбит/сек
Каналы : 2 канала
Частота : 44,1 КГц
Битовая глубина : 16 бит
Размер потока : 3,25 Мбайт (2%)
Язык : English
Default : Нет
Forced : Нет
-
---

Скриншоты





AlexMC

Post 28-Aug-2013 05:00

[Quote] 

Неплохие девочки )) СПС

Dark Alice

Post 17-Jun-2013 13:24

[Quote] 

Batpic.com - Not found (404)

exter

Post 26-May-2012 22:35

[Quote] 

Шлюхи бизнесмена 3D / Salopes chic pour homme d'affaire 3D
Год выпуска: 2012
Жанр: All sex
Продолжительность: 00:19:32
В ролях: Cathy Heaven, Donna Bell, J.P.X
Описание: Donna and Cathy are to rich little bitches always looking for new sensations. While visiting their property, they'll do anything to catch JPX between their legs. He won't resist long before fucking the two of them.
Качество: HDTV
Формат: AVI
Видео: FMP4 / 1920x1080 / 25.00fps / 12587 kbps
Аудио: MPEG Audio / 44100Hz / stereo / 128 kbps

Скриншоты


nikolaich52rus

Post 16-Jun-2013 17:23

[Quote] 

Шляпа голимая! Не качайте! Чуть зенки не сломал от такого 3Д!!!

Maryo

Post 23-Dec-2012 01:58

[Quote] 

sps ...!!!!!!!

Мареман

Post 21-Dec-2012 17:01

[Quote] 

Спасибо !!!!!

www3110

Post 05-Nov-2012 00:38

[Quote] 

Наделайте кто-то скринов. А то эти умерли уже

nonme

Post 14-Sep-2012 11:58

[Quote] 

Снял ограничение скорости раздачи до конца дня. Вечером обратно верну, уж извините...

2012Коля

Post 13-Sep-2012 14:04

[Quote] 

Что со скоростью?1,1кБ/с.-три недели тянуть
nonme- поддай газу.

Raytek

Post 02-Sep-2012 12:44

[Quote] 

как фильм смотреть

shora

Post 30-Jun-2012 22:26

[Quote] 

спасиб

ananova

Post 30-Jun-2012 07:58

[Quote] 

3D-Eros.com MiniPack I
Год выпуска: 2010
Страна: Япония
Жанр: All sex
В ролях: Akane Mizumori, Sanae Takanashi, Miho Wakabayashi, Miki Fujisaki, Hanako Yamamura, Hitomi Sakurai, Honami Yoshinaga, Mai Natsuki, Ryoko Asuka
Качество: DVDRip
Формат: WMV
Видео: Windows Media Video 9 / 2048x576 / 29.97fps / ~4000kbps
Аудио: Windows Media Audio / 44100Hz / stereo / 128kbps
 

Current time is: 17-Aug 20:27

All times are UTC + 3