Очень красивая молодая армянка трахается в колготках [Фетиш, Колготки, Teens, Восточные девушки]

Reply to topic
DL-List and Torrent activity
None
   
   
   Author    

ShagrathXD ®

8 years 4 months

18 posts

Saint-P

spacer image

Post 13-Jun-2011 00:17

[Quote] 

Очень красивая молодая армянка трахается в колготках
Жанр: Фетиш, Колготки, Teens, Восточные девушки
Продолжительность: 00:15:55
Описание: Симпатичная девушка пришла домой и не знала, что в той же комнате спрятался парень, уже разогревший себя онанизмом на ее колготки
Формат: WMV
Video
ID : 2
Format : VC-1
Format profile : MP@HL
Codec ID : WMV3
Codec ID/Info : Windows Media Video 9
Codec ID/Hint : WMV3
Description of the codec : Windows Media Video 9 - Professional
Duration : 15mn 55s
Bit rate mode : Constant
Bit rate : 3 000 Kbps
Width : 1 280 pixels
Height : 720 pixels
Display aspect ratio : 16:9
Frame rate : 24.000 fps
Bit depth : 8 bits
Scan type : Progressive
Compression mode : Lossy
Bits/(Pixel*Frame) : 0.136
Stream size : 342 MiB (90%)
NumberOfFrames : 22922
Audio
ID : 1
Format : WMA
Format version : Version 2
Codec ID : 161
Codec ID/Info : Windows Media Audio
Description of the codec : Windows Media Audio 9.1 - 320 kbps, 44 kHz, stereo 1-pass CBR
Duration : 15mn 55s
Bit rate mode : Constant
Bit rate : 320 Kbps
Channel(s) : 2 channels
Sampling rate : 44.1 KHz
Bit depth : 16 bits
Stream size : 36.5 MiB (10%)

Скриншоты

[Profile]  [PM] 

lvbnhbq7272

8 years 5 months

1 posts

spacer image

Post 13-Jun-2011 00:21 (after 4 minutes)

[Quote] 

Спасибо за труды
[Profile]  [PM] 

Frost*

8 years 1 month

1 posts

spacer image

Post 09-Sep-2011 22:37 (after 2 months 26 days)

[Quote] 

сиды ау
[Profile]  [PM] 

klen008

7 years 11 months

295 posts

spacer image

Post 29-Oct-2011 23:24 (after 1 month 20 days)

[Quote] 

спасибо
[Profile]  [PM] 

tolick.culakov

7 years 11 months

15 posts

spacer image

Post 20-Nov-2011 18:09 (after 21 day)

[Quote] 

cпасибо
[Profile]  [PM] 

Egorka91

7 years 10 months

1 posts

spacer image

Post 22-Dec-2011 14:32 (after 1 month 1 day)

[Quote] 

Разве армянка?
[Profile]  [PM] 

demon630

7 years 9 months

1 posts

spacer image

Post 05-Jan-2012 08:15 (after 13 days)

[Quote] 

это ж Фатима с my18teens
[Profile]  [PM] 

VBC

7 years 7 months

72 posts

spacer image

Post 23-Feb-2012 08:02 (after 1 month 17 days)

[Quote] 

Красивый бабец
[Profile]  [PM] 

bos999777999

7 years 7 months

1 posts

spacer image

Post 25-Feb-2012 11:45 (after 2 days 3 hours)

[Quote] 

Парни очень хочу скачать, вернитесь на раздачу плиз)
[Profile]  [PM] 

гном67

7 years 5 months

6 posts

spacer image

Post 03-Jun-2012 05:33 (after 3 months 6 days)

[Quote] 

спасибо за видео
[Profile]  [PM] 

nemrud

7 years 4 months

1 posts

spacer image

Post 18-Nov-2012 22:27 (after 5 months 15 days)

[Quote] 

это ж Фатима с my18teens
не.
азерка имя Фатима и 18 teen.
[Profile]  [PM] 
Display posts:    
Reply to topic

Current time is: 19-Oct 15:45

All times are UTC + 3



You cannot post new topics in this forum
You cannot reply to topics in this forum
You cannot edit your posts in this forum
You cannot delete your posts in this forum
You cannot vote in polls in this forum
You cannot attach files in this forum
You can download files in this forum