Amateur Older Couple Bed Homemade Sex [2010 y., Amateur, Homemade, Mature, Natural Tits, Sextape, Privat, CamRip]

Reply to topic
 
Author Message

siemekpower ®

Longevity: 1 year 4 months

Posts: 635

Post 13-Aug-2013 20:32

[Quote]

Amateur Older Couple Bed Homemade Sex
Year: 2010
Genre: Amateur, Homemade, Mature, Natural Tits, Sextape, Privat
Playtime: 21:10

Техническая информация:

Format : AVI
Format/Info : Audio Video Interleave
File size : 247 MiB
Duration : 21mn 10s
Overall bit rate : 1 627 Kbps
Writing application : Lavf52.39.1
Video
ID : 0
Format : xvid
Codec ID : xvid
Duration : 21mn 10s
Bit rate : 1 550 Kbps
Width : 720 pixels
Height : 576 pixels
Display aspect ratio : 5:4
Frame rate : 30.000 fps
Standard : PAL
Bits/(Pixel*Frame) : 0.125
Stream size : 235 MiB (95%)
Audio
ID : 1
Format : MPEG Audio
Format version : Version 1
Format profile : Layer 3
Mode : Joint stereo
Mode extension : MS Stereo
Codec ID : 55
Codec ID/Hint : MP3
Duration : 21mn 10s
Bit rate mode : Constant
Bit rate : 64.0 Kbps
Channel(s) : 2 channels
Sampling rate : 44.1 KHz
Compression mode : Lossy
Stream size : 9.69 MiB (4%)
Alignment : Aligned on interleaves
Interleave, duration : 26 ms (0.78 video frame)
Interleave, preload duration : 26 ms
Quality: CamRip
Format: AVI
Video codec: XviD
Audio codec: MPEG Audio
Video: 236 MB, 1564 Kbps, 30.0 fps, 720*576 (5:4), xvid = XVID Mpeg-4
Audio: 9.68 MB, 64 Kbps, 44100 Hz, 2 channels, 0x55 = MPEG Layer-3

Screenshots


Зарегистрируйтесь, чтобы скачивать торренты без рекламы


Amateur Older Couple Bed Homemade Sex.avi.torrent
Torrent: Registered   [ 2013-08-13 20:32 ]  ·   Hash

Download

77 KB

Status: checked
Completed: 228 times
Size: 247 MB
[Profile] [PM]
 
Display posts from previous:    
Reply to topic