[Meandungeon.com / MeanWorld.com] Jenna Ivory [2014 г., Femdom, Foot Worship, Facesitting, Blondes, Big Butt, Ass Worship, Straight, SiteRip 1080p]

Reply to topic
DL-List and Torrent activity
Size:  1.45 GB   |    Registered:  4 years 5 months   |    Completed:  62 times
DL-List: None


Leechers:  2  
 
   
 
 
   
   Author    

Mafiozo ®

5 years 4 months

48760 posts

Приходите в мой сайт Порноград за новими раздачами !

Post 18-Jun-2014 14:43

[Quote] 

Jenna Ivory -


Год производства: 2014 г.
Страна: USA
Жанр: Foot Worship, Facesitting, Blondes, Ass Worship, Amazon.
Продолжительность: 00:40:00
Студия: Meandungeon.com
В ролях: Jenna Ivory
Описание:
Jenna Ivory is back! She uses slave Jack for her pleasure, and I mean EVERY bit of pleasure she wants!
Тип HD видео: 1080p

Mediainfo

Format : MPEG-4
Format profile : Base Media
Codec ID : isom
File size : 1.45 GiB
Duration : 40mn 40s
Overall bit rate : 5 109 Kbps
Writing application : Lavf55.12.100
Video
ID : 1
Format : AVC
Format/Info : Advanced Video Codec
Format profile : [email protected]
Format settings, CABAC : No
Format settings, ReFrames : 3 frames
Codec ID : avc1
Codec ID/Info : Advanced Video Coding
Duration : 40mn 40s
Bit rate : 5 000 Kbps
Width : 1 920 pixels
Height : 1 080 pixels
Display aspect ratio : 16:9
Frame rate mode : Constant
Frame rate : 30.000 fps
Color space : YUV
Chroma subsampling : 4:2:0
Bit depth : 8 bits
Scan type : Progressive
Bits/(Pixel*Frame) : 0.080
Stream size : 1.41 GiB (97%)
Writing library : x264 core 125
Encoding settings : cabac=0 / ref=3 / deblock=1:0:0 / analyse=0x1:0x111 / me=hex / subme=7 / psy=1 / psy_rd=1.00:0.00 / mixed_ref=1 / me_range=16 / chroma_me=1 / trellis=1 / 8x8dct=0 / cqm=0 / deadzone=21,11 / fast_pskip=1 / chroma_qp_offset=-2 / threads=3 / lookahead_threads=1 / sliced_threads=0 / nr=0 / decimate=1 / interlaced=0 / bluray_compat=0 / constrained_intra=0 / bframes=0 / weightp=0 / keyint=250 / keyint_min=25 / scenecut=40 / intra_refresh=0 / rc_lookahead=40 / rc=cbr / mbtree=1 / bitrate=5000 / ratetol=1.0 / qcomp=0.60 / qpmin=0 / qpmax=69 / qpstep=4 / vbv_maxrate=5000 / vbv_bufsize=5000 / nal_hrd=none / ip_ratio=1.40 / aq=1:1.00
Audio
ID : 2
Format : AAC
Format/Info : Advanced Audio Codec
Format profile : LC
Codec ID : 40
Duration : 40mn 40s
Bit rate mode : Constant
Bit rate : 128 Kbps
Channel count : 2 channels
Channel positions : Front: L R
Sampling rate : 44.1 KHz
Compression mode : Lossy
Stream size : 37.4 MiB (3%)
Language : English

- ---

Скриншоты





[leporno.org].t104682.torrent
Torrent: Registered Uploaded 2014-06-18 14:43Info Hash: 1C59E2F353247B3DBF009793810D9C95C5007C49

Download .torrent

Download

15 KB

Status: checked
Completed: 62 times
Size: 1.45 GB
[Profile]  [PM] 
Display posts:    
Reply to topic

Current time is: 19-Nov 17:34

All times are UTC + 3