Девочка из колледжа развлекается по вебке [2014, Amateur, Webcam, Solo, Masturbation, CamRip]

Reply to topic
DL-List and Torrent activity
Size:  33 MB   |    Registered:  4 years 3 months   |    Completed:  916 times
DL-List: None


Leechers:  8  
 
   
 
 
   
   Author    

labamba2009 ®

5 years 3 months

1 posts

Post 18-Jun-2014 20:44

[Quote] 

Девочка из колледжа развлекается по вебке
Year: 2014
Genre: Amateur, Webcam, Solo, Masturbation
Playtime: 06:38
Description: Студентка колледжа с удовольствием развлекается по вебке. Сначала просто ласкает себя, потом пускает в ход и расческу, которая удачно оказалась рядом.
Quality: CamRip
Format: AVI
Video codec: H.26x

Техническая инфа

Complete name : D:\i\046webcaps17[leporno.org].avi
Format : Flash Video
File size : 33.1 MiB
Duration : 6mn 37s
Overall bit rate : 698 Kbps
Tagged date : UTC 2010-03-23 16:46:51
Tagging application : inlet media FLVTool2 v1.0.6 - http://www.inlet-media.de/flvtool2
Video
Format : Sorenson Spark
Codec ID : 2
Duration : 6mn 39s
Bit rate : 514 Kbps
Width : 448 pixels
Height : 336 pixels
Display aspect ratio : 4:3
Frame rate mode : Constant
Frame rate : 30.000 fps
Bit depth : 8 bits
Bits/(Pixel*Frame) : 0.114
Stream size : 24.5 MiB (74%)
Audio
Format : ADPCM
Format settings, Firm : ShockWave
Codec ID : 1
Duration : 6mn 41s
Bit rate : 177 Kbps
Channel(s) : 2 channels
Sampling rate : 22.05 KHz
Bit depth : 16 bits
Stream size : 8.50 MiB (26%)

Screenshots

[leporno.org].t104714.torrent
Torrent: Registered Uploaded 2014-06-18 20:44Info Hash: 7641A9C8EC014FDE0847ABA8170F239D1B2D1080

Download .torrent

Download

11 KB

Status: checked
Completed: 916 times
Size: 33 MB
[Profile]  [PM] 
Display posts:    
Reply to topic

Current time is: 19-Sep 10:01

All times are UTC + 3