[BaDoinkVR.com] August Ames, Valentina Nappi, Jaclyn Taylor (Cumming Full Circle - A 360° Experience) [07-09-2015 г., all sex, 3d, 2160p]

Reply to topic
DL-List and Torrent activity
Complete: [ 1 ]
Size:  1.75 GB   |    Registered:  2 years 5 months   |    Completed:  84 times


Seeders:  58   Leechers:  75  
 
   
 
   
   Author    

hscz72 ®

2 years 5 months

92 posts

ТО Север

Post 01-Dec-2015 17:36

[Quote] 


Cumming Full Circle - A 360° Experience / August Ames, Valentina Nappi, Jaclyn Taylor



Год выпуска: 2015

В ролях: August Ames, Valentina Nappi, Jaclyn Taylor

Жанр: all sex, 3d

Продолжительность: 00:16:21

Студия:BaDoinkVR.com

Описание: Ahh the good life... Take a full 360° view at your beach house, as you kick it back with a buddy and 3 of your favorite porn stars. Most people would say you're lucky, but you call it Wednesday afternoon. Sit back and enjoy the sweet company of August Ames, Valentina Nappi, and Jaclyn Taylor in 3D goodness..


Качество: 2160p
Формат: MP4
Формат 3D: ролик для шлема виртуальной реальности Oculus Rift (180º & 360º Video)

Видео кодек: H.264/AVC
Аудио кодек: AAC

Видео: MPEG4 Video (H264) 2160x2160 25fps 14957kbps [V: Alias Data Handler [eng] (h264 main L5.0, yuv420p, 2160x2160, 14957 kb/s)]
Аудио: AC 48000Hz stereo 317kbps [A: Alias Data Handler [eng] (aac lc, 48000 Hz, stereo, 317 kb/s)]

МИ

General
Complete name : C:\сетка\Новая папка (4)\August Ames.mp4
Format : MPEG-4
Format profile : Base Media / Version 2
Codec ID : mp42
File size : 1.75 GiB
Duration : 16mn 21s
Overall bit rate mode : Variable
Overall bit rate : 15.3 Mbps
Encoded date : UTC 2015-07-20 15:39:46
Tagged date : UTC 2015-07-20 15:40:10
©TIM : 00:00:00:00
©TSC : 25
©TSZ : 1
Video
ID : 1
Format : AVC
Format/Info : Advanced Video Codec
Format profile : [email protected]
Format settings, CABAC : Yes
Format settings, ReFrames : 3 frames
Format settings, GOP : M=4, N=25
Codec ID : avc1
Codec ID/Info : Advanced Video Coding
Duration : 16mn 21s
Bit rate : 15.0 Mbps
Width : 2 160 pixels
Height : 2 160 pixels
Display aspect ratio : 1.000
Frame rate mode : Constant
Frame rate : 25.000 fps
Standard : PAL
Color space : YUV
Chroma subsampling : 4:2:0
Bit depth : 8 bits
Scan type : Progressive
Bits/(Pixel*Frame) : 0.128
Stream size : 1.71 GiB (98%)
Language : English
Encoded date : UTC 2015-07-20 15:39:46
Tagged date : UTC 2015-07-20 15:39:46
Color primaries : BT.709-5, BT.1361, IEC 61966-2-4, SMPTE RP177
Transfer characteristics : BT.709-5, BT.1361
Matrix coefficients : BT.709-5, BT.1361, IEC 61966-2-4 709, SMPTE RP177
Audio
ID : 2
Format : AAC
Format/Info : Advanced Audio Codec
Format profile : LC
Codec ID : 40
Duration : 16mn 21s
Bit rate mode : Variable
Bit rate : 317 Kbps
Maximum bit rate : 354 Kbps
Channel(s) : 2 channels
Channel positions : Front: L R
Sampling rate : 48.0 KHz
Compression mode : Lossy
Stream size : 37.1 MiB (2%)
Language : English
Encoded date : UTC 2015-07-20 15:39:46
Tagged date : UTC 2015-07-20 15:39:46
Material_Duration : 981355
Material_StreamSize : 38932180

Скриншоты



[leporno.org].t144531.torrent  
Torrent: Registered Uploaded 2015-12-01 17:36Info Hash: E8F5093351B68A284B80F418F8C30DF99DF405C1

Download .torrent

Download

18 KB

Status: * not checked
Completed: 84 times
Size: 1.75 GB
[Profile]  [PM] 
Display posts:    
Reply to topic

Current time is: 26-May 11:22

All times are UTC + 3