Грязный секас) (личное) 2012 HD 720p +

Reply to topic
DL-List and Torrent activity
Complete: [ 1 ]
Size:  572 MB   |    Registered:  5 years 9 months   |    Completed:  1230 times


Seeders:  9   Leechers:  59  
 
   
 
   
   Author    

sozercatel7 ®

6 years

736 posts

из мамки

Post 17-Nov-2012 01:21

[Quote] 

Грязный секас) (личное)
Год производства: 2012 г.
Страна: Наша Раша
Жанр: Anal,, Scat, Pissing
Продолжительность: 1мин +1мин+1мин+3мин+5мин
В ролях: мы с подружкой)
Описание: чуть фот и видео
С подружкой баловались испачкались)
     
Доп. информация: Video: MPEG4 Video (H264) 640x480 30fps [Video]
Audio: AAC 44100Hz mono 705kbps [Audio]

Грязный секас)Подробные тех.данные:

SAM_4398.MP4 / 05:32 146 Мб
SAM_4428.MP4 / 00:22 9,68 Мб
SAM_4480.MP4 Писс и выдавливание кончины с какой) / 00:01:22 36,2 МБ

Format : MPEG-4
Format profile : Sony PSP
Codec ID : MSNV
File size : 146 MiB
Duration : 5mn 31s
Overall bit rate : 3 702 Kbps
Encoded date : UTC 2012-08-24 21:10:32
Tagged date : UTC 2012-08-24 21:10:32
Video
ID : 1
Format : AVC
Format/Info : Advanced Video Codec
Format profile : [email protected]
Format settings, CABAC : Yes
Format settings, ReFrames : 2 frames
Format settings, GOP : M=3, N=8
Codec ID : avc1
Codec ID/Info : Advanced Video Coding
Duration : 5mn 31s
Bit rate mode : Variable
Bit rate : 3 568 Kbps
Width : 640 pixels
Height : 480 pixels
Display aspect ratio : 4:3
Frame rate mode : Constant
Frame rate : 30.000 fps
Color space : YUV
Chroma subsampling : 4:2:0
Bit depth : 8 bits
Scan type : Progressive
Bits/(Pixel*Frame) : 0.387
Stream size : 141 MiB (96%)
Language : Japanese
Encoded date : UTC 2012-08-24 21:10:32
Tagged date : UTC 2012-08-24 21:10:32
Audio
ID : 2
Format : AAC
Format/Info : Advanced Audio Codec
Format profile : LC
Codec ID : 40
Duration : 5mn 31s
Bit rate mode : Constant
Bit rate : 128 Kbps
Channel(s) : 1 channel
Channel positions : Front: C
Sampling rate : 44.1 KHz
Compression mode : Lossy
Delay relative to video : -11ms
Stream size : 5.06 MiB (3%)
Language : Japanese
Encoded date : UTC 2012-08-24 21:10:32
Tagged date : UTC 2012-08-24 21:10:32
SAM_4623.MP4 Выдавливание спермы из попы аж какашки вылетают) / 00:01:22 82,6 МБ
SAM_4625.MP4 Писс и остатки из попы) / 00:01:04 64,6 МБ
SAM_4627.MP4 Похотливый пЫсь мокренький)/ 00:03:14 194 МБ (204333062 bytes)

Format : MPEG-4
Format profile : Sony PSP
Codec ID : MSNV
File size : 82.6 MiB
Duration : 1mn 22s
Overall bit rate : 8 431 Kbps
Encoded date : UTC 2012-09-18 02:14:35
Tagged date : UTC 2012-09-18 02:14:35
Video
ID : 1
Format : AVC
Format/Info : Advanced Video Codec
Format profile : [email protected]
Format settings, CABAC : Yes
Format settings, ReFrames : 2 frames
Format settings, GOP : M=3, N=8
Codec ID : avc1
Codec ID/Info : Advanced Video Coding
Duration : 1mn 22s
Bit rate mode : Variable
Bit rate : 8 296 Kbps
Width : 1 280 pixels
Height : 720 pixels
Display aspect ratio : 16:9
Frame rate mode : Constant
Frame rate : 30.000 fps
Color space : YUV
Chroma subsampling : 4:2:0
Bit depth : 8 bits
Scan type : Progressive
Bits/(Pixel*Frame) : 0.300
Stream size : 81.3 MiB (98%)
Language : Japanese
Encoded date : UTC 2012-09-18 02:14:35
Tagged date : UTC 2012-09-18 02:14:35
Audio
ID : 2
Format : AAC
Format/Info : Advanced Audio Codec
Format profile : LC
Codec ID : 40
Duration : 1mn 22s
Bit rate mode : Constant
Bit rate : 128 Kbps
Channel(s) : 1 channel
Channel positions : Front: C
Sampling rate : 44.1 KHz
Compression mode : Lossy
Delay relative to video : -11ms
Stream size : 1.25 MiB (2%)
Language : Japanese
Encoded date : UTC 2012-09-18 02:14:35
Tagged date : UTC 2012-09-18 02:14:35
Тип HD видео: 720p
Качество видео: CamRip
Формат видео: MP4
Видео: Video: MPEG4 Video (H264) 1280x720 30fps [Video]
Аудио: Audio: AAC 44100Hz mono 705kbps [Audio]

Вуалеристы смотрят тут Скриншоты

SAM_4398.MP4 / 05:32 146 Мб

Video: MPEG4 Video (H264) 640x480 30fps [Video]
Audio: AAC 44100Hz mono 705kbps [Audio]
             

SAM_4428.MP4 / 00:22 9,68 Мб

Video: MPEG4 Video (H264) 640x480 30fps [Video]
Audio: AAC 44100Hz mono 705kbps [Audio]
             

SAM_4480.MP4 Писс и выдавливание кончины с какой) / 00:01:22 36,2 МБ

Video: MPEG4 Video (H264) 640x480 30fps [Video]
Audio: AAC 44100Hz mono 705kbps [Audio]
             

SAM_4623.MP4 Выдавливание спермы из попы аж какашки вылетают) / 00:01:22 82,6 МБ

Video: MPEG4 Video (H264) 1280x720 30fps [Video] Bit rate : 8 296 Kbps
Audio: AAC 44100Hz mono 705kbps [Audio] Bit rate : 128 Kbps
             

SAM_4625.MP4 Писс и остатки из попы) / 00:01:04 64,6 МБ

Video: MPEG4 Video (H264) 1280x720 30fps [Video]
Audio: AAC 44100Hz mono 705kbps [Audio]
             

SAM_4627.MP4 Похотливый пЫсь мокренький)/ 00:03:14 194 МБ (204333062 bytes)

Video: MPEG4 Video (H264) 1280x720 30fps [Video]
Audio: AAC 44100Hz mono 705kbps [Audio]
             

Примеры фот)

     
[leporno.org].t34177.torrent  
Torrent: Registered Uploaded 2012-11-17 01:21Info Hash: 840F4817BD74E0556592C7A33B182DE39C4A513E

Download .torrent

Download

12 KB

Status: checked
Completed: 1230 times
Size: 572 MB


Last edited by sozercatel7 on 2018-06-06 21:02; edited 4 times in total
[Profile]  [PM] 

knserge

6 years 3 months

2 posts

Post 06-Dec-2012 11:06 (after 19 days)

[Quote] 

как здесь скачать?
[Profile]  [PM] 

sozercatel7 ®

6 years

736 posts

из мамки

Post 06-Dec-2012 23:31 (after 12 hours)

[Quote] 

как здесь скачать?
[Profile]  [PM] 

FUFEL73

6 years 3 months

50 posts

славный город Иваново

Post 01-Jan-2013 11:30 (after 25 days)

[Quote] 

ни х*я себе прикольно! Качать!!!
[Profile]  [PM] 

sozercatel7 ®

6 years

736 posts

из мамки

Post 29-Jun-2013 08:08 (after 5 months 27 days)

[Quote] 

опять на лабу от сюда перекинули пидары
[Profile]  [PM] 

sozercatel7 ®

6 years

736 posts

из мамки

Post 06-Jun-2018 21:07 (after 4 years 11 months)

[Quote] 

встал на раздачу
 
[Profile]  [PM] 
Display posts:    
Reply to topic

Current time is: 21-Aug 05:21

All times are UTC + 3