Vanessa Lane, Tory Lane (Безудержный лесбийский секс) [2010 г., All Girl,Anal,Dildo,Masturbation,Oral]

Reply to topic
DL-List and Torrent activity
Size:  99 MB   |    Registered:  6 years 1 month   |    Completed:  237 times
DL-List: None
 
     
 
 
   
   Author    

Santakss ®

7 years 2 months

210 posts

Post 16-May-2013 12:21

[Quote] 

Vanessa Lane, Tory Lane (Безудержный лесбийский секс)
Год выпуска: 2010
Жанр: All Girl,Anal,Dildo,Masturbation,Oral
Продолжительность: 00:29:23
В ролях: Vanessa Lane, Tory Lane
Описание: Vanessa Lane, Tory Lane. Сцена из Dirty Dykes.
Очень зажигательное видео. Всем советую!!!

Доп. информация


Complete name :Vanessa Lane, Tory Lane.flv
Format : Flash Video
File size : 98.7 MiB
Duration : 29mn 23s
Overall bit rate : 469 Kbps
Tagged date : UTC 2010-04-19 22:22:26
Video
Format : VP6
Codec ID : 4
Duration : 29mn 23s
Bit rate : 397 Kbps
Width : 528 pixels
Height : 352 pixels
Display aspect ratio : 3:2
Frame rate mode : Constant
Frame rate : 25.000 fps
Bit depth : 8 bits
Bits/(Pixel*Frame) : 0.086
Stream size : 84.0 MiB (85%)
Audio
Format : MPEG Audio
Format version : Version 2
Format profile : Layer 3
Mode : Joint stereo
Mode extension : MS Stereo
Codec ID : 2
Codec ID/Hint : MP3
Duration : 29mn 23s
Bit rate mode : Constant
Bit rate : 64.0 Kbps
Channel(s) : 2 channels
Sampling rate : 22.05 KHz
Compression mode : Lossy
Stream size : 14.2 MiB (14%)
Writing library : LAME3.98.2
Видео: VP6F 528x352 25fps 406kbps
Аудио: MPEG Audio Layer 3 22050Hz stereo 64kbps

Скриншоты



[leporno.org].t57672.torrent
Torrent: Registered Uploaded 2013-05-16 12:21Info Hash: FB8957B05BC8546ACAC66D1F9ACC9845B940E0BE

Download .torrent

Download

16 KB

Status: checked
Completed: 237 times
Size: 99 MB


Last edited by Santakss on 2013-07-17 16:12; edited 2 times in total
[Profile]  [PM] 

Alphazone

7 years 8 months

2589 posts

Post 17-May-2013 15:13 (after 1 day 2 hours)

[Quote] 

не забываем про Batpic
[Profile]  [PM] 
Display posts:    
Reply to topic

Current time is: 17-Jun 20:45

All times are UTC + 3



You cannot post new topics in this forum
You cannot reply to topics in this forum
You cannot edit your posts in this forum
You cannot delete your posts in this forum
You cannot vote in polls in this forum
You cannot attach files in this forum
You can download files in this forum