[pornfilms3d.com] Dasha 3D (Big cock in redhead's tight ass 3D) [2010 г., Blowjob, Classic sex, Anal, Cumshot, Teens, 3D, 1080p, HDRip] Half SideBySide / Горизонтальная анаморфная стереопара

Reply to topic
DL-List and Torrent activity
Size:  1.44 GB   |    Registered:  6 years 1 month   |    Completed:  526 times
DL-List: None
 
     
 
 
   
   Author    

IgorekSh ®

6 years 6 months

217 posts

Great Ukraine

Post 16-May-2013 16:47

[Quote] 

Dasha 3D - Big cock in redhead's tight ass 3D
Имя актрисы: Dasha
Название ролика: Big cock in redhead's tight ass 3D
Подсайт и сайт: pornfilms3d.com
Год производства: 2010 г.
Жанр: Blowjob, Classic sex, Anal, Cumshot, Teens, 3D
Продолжительность: 00:22:34
В ролях: Dasha & Mike
Описание: Рыжеволосая Даша с упругой попкой и Майк с большим члечом нашли хороший способ скоротать время.
Тип HD видео: 1080p
Формат 3D: Half SideBySide / Горизонтальная анаморфная стереопара
Формат видео: MP4
Видео кодек: AVC
Аудио кодек: AAC
Видео: MPEG4 Video (H264) / 1920x1080p / 25.000 fps / 9000 kbps
Аудио: AAC (LC) / 48 kHz / stereo / 128 kbps--Проверено на встроенном плейере ТВ Samsung UE55 D6100--

MediaInfo

Общее
Полное имя : D:\Download\Adult content\Big cock in redhead's tight ass 3D 2010 HDRip halfSbS 1080p (IgorekSh).mp4
Формат : MPEG-4
Профиль формата : JVT
Идентификатор кодека : avc1
Размер файла : 1,44 Гбайт
Продолжительность : 22 м.
Режим общего битрейта : Постоянный
Общий поток : 9138 Кбит/сек
Дата кодирования : UTC 2013-01-23 12:52:49
Дата пометки : UTC 2013-01-23 12:52:49
Видео
Идентификатор : 1
Формат : AVC
Формат/Информация : Advanced Video Codec
Профиль формата : [email protected]
Параметр CABAC формата : Да
Параметр ReFrames формата : 2 кадра
Идентификатор кодека : avc1
Идентификатор кодека/Информация : Advanced Video Coding
Продолжительность : 22 м.
Вид битрейта : Постоянный
Битрейт : 9000 Кбит/сек
Ширина : 1920 пикселей
Высота : 1080 пикселей
Соотношение сторон : 16:9
Режим частоты кадров : Постоянный
Частота кадров : 25,000 кадров/сек
Цветовое пространство : YUV
Субдискретизация насыщенности : 4:2:0
Битовая глубина : 8 бит
Тип развёртки : Прогрессивная
Бит/(Пиксели*Кадры) : 0.174
Размер потока : 1,42 Гбайт (98%)
Язык : English
Дата кодирования : UTC 2013-01-23 12:52:49
Дата пометки : UTC 2013-01-23 12:52:49
Аудио
Идентификатор : 2
Формат : AAC
Формат/Информация : Advanced Audio Codec
Профиль формата : LC
Идентификатор кодека : 40
Продолжительность : 22 м.
Вид битрейта : Постоянный
Битрейт : 128 Кбит/сек
Каналы : 2 канала
Расположение каналов : Front: L R
Частота : 48,0 КГц
Метод сжатия : С потерями
Задержка видео : 40 мс.
Размер потока : 20,7 Мбайт (1%)
Язык : English
Дата кодирования : UTC 2013-01-23 12:52:49
Дата пометки : UTC 2013-01-23 12:52:49

Скринлист


[leporno.org].t57690.torrent
Torrent: Registered Uploaded 2013-05-16 16:47Info Hash: 6932F567D439A37852E7FD074FE34456B4F1D665

Download .torrent

Download

15 KB

Status: checked
Completed: 526 times
Size: 1.44 GB
[Profile]  [PM] 
Display posts:    
Reply to topic

Current time is: 25-Jun 07:14

All times are UTC + 3



You cannot post new topics in this forum
You cannot reply to topics in this forum
You cannot edit your posts in this forum
You cannot delete your posts in this forum
You cannot vote in polls in this forum
You cannot attach files in this forum
You can download files in this forum