[ThaiGirlsWild.com] Janine ([ThaiGirlsWild.com] Janine Shower Show [2012 г., Asian,Erotic]) [2012 г., Asian,Erotic]

Reply to topic
DL-List and Torrent activity
Size:  143 MB   |    Registered:  6 years 1 month   |    Completed:  163 times
DL-List: None
 
     
 
 
   
   Author    

Santakss ®

7 years 2 months

210 posts

Post 17-May-2013 11:39

[Quote] 

Janine ([ThaiGirlsWild.com] Janine Shower Show [2012 г., Asian,Erotic])
Сайт источник: [ThaiGirlsWild.com]
Год выпуска: 2012
Жанр: Asian,Erotic
Продолжительность: 00:02:17
В ролях: Janine
Описание: Красивая девушка с отличной фигурой принимает душ....
Второе видео, которое удалось найти, с горячей Janine.

Доп. информация

General
Format : MPEG-PS
File size : 143 MiB
Duration : 2mn 16s
Overall bit rate : 8 771 Kbps
Video
ID : 224 (0xE0)
Format : MPEG Video
Format version : Version 2
Format profile : [email protected]
Format settings, BVOP : Yes
Format settings, Matrix : Default
Format settings, GOP : M=3, N=15
Duration : 2mn 16s
Bit rate : 8 372 Kbps
Maximum bit rate : 8 275 Kbps
Width : 640 pixels
Height : 480 pixels
Display aspect ratio : 4:3
Frame rate : 30.000 fps
Standard : NTSC
Color space : YUV
Chroma subsampling : 4:2:0
Bit depth : 8 bits
Scan type : Progressive
Compression mode : Lossy
Bits/(Pixel*Frame) : 0.908
Stream size : 136 MiB (95%)
Color primaries : BT.470-2 system M
Transfer characteristics : BT.470-2 System M
Matrix coefficients : BT.470-2 System B, BT.470-2 System G
Audio
ID : 192 (0xC0)
Format : MPEG Audio
Format version : Version 1
Format profile : Layer 2
Duration : 2mn 16s
Bit rate mode : Constant
Bit rate : 224 Kbps
Channel(s) : 2 channels
Sampling rate : 44.1 KHz
Compression mode : Lossy
Stream size : 3.65 MiB (3%)
Видео: MPEG2 Video 640x480 30fps 8275kbps [Video]
Аудио: MPEG Audio 44100Hz stereo 224kbps [Mpeg-1]

Скриншоты



[leporno.org].t57754.torrent
Torrent: Registered Uploaded 2013-05-17 11:39Info Hash: 85A2522AA400F781C4D7CF89E307B52F5097D30D

Download .torrent

Download

12 KB

Status: checked
Completed: 163 times
Size: 143 MB


Last edited by Santakss on 2013-07-17 16:11; edited 2 times in total
[Profile]  [PM] 

Alphazone

7 years 8 months

2589 posts

Post 17-May-2013 15:13 (after 3 hours)

[Quote] 

не забываем про Batpic
[Profile]  [PM] 
Display posts:    
Reply to topic

Current time is: 17-Jun 19:48

All times are UTC + 3



You cannot post new topics in this forum
You cannot reply to topics in this forum
You cannot edit your posts in this forum
You cannot delete your posts in this forum
You cannot vote in polls in this forum
You cannot attach files in this forum
You can download files in this forum