Горячие лесбиянки в туалете / Hot lesbians in toilet [2003 г., Gonzo]

Reply to topic
   
   Author    

Santakss ®

7 years

210 posts

Post 17-May-2013 12:02

[Quote] 

Горячие лесбиянки в туалете / Hot lesbians in toilet
Год выпуска: 2003
Жанр: Gonzo
Продолжительность: 00:08:19
В ролях: Jenna Jameson, Brittany Andrews
Описание: Две блондинистые лесбиянки оттягиваются в туалете. Обе подруги очень темпераментные, видео стоит посмотреть....
Видео: Xvid 480x352 29.97fps [Stream 00]
Аудио: MPEG Audio Layer 3 44100Hz stereo 128kbps [Stream 01]

Тех.данные

General
Format : AVI
Format/Info : Audio Video Interleave
File size : 79.7 MiB
Duration : 8mn 18s
Overall bit rate : 1 340 Kbps
Video
ID : 0
Format : MPEG-4 Visual
Format profile : Advanced [email protected]
Format settings, BVOP : No
Format settings, QPel : No
Format settings, GMC : No warppoints
Format settings, Matrix : Default (H.263)
Codec ID : XVID
Codec ID/Hint : XviD
Duration : 8mn 18s
Bit rate : 1 198 Kbps
Width : 480 pixels
Height : 352 pixels
Display aspect ratio : 4:3
Frame rate : 29.970 fps
Color space : YUV
Chroma subsampling : 4:2:0
Bit depth : 8 bits
Scan type : Progressive
Compression mode : Lossy
Bits/(Pixel*Frame) : 0.237
Stream size : 71.3 MiB (89%)
Audio
ID : 1
Format : MPEG Audio
Format version : Version 1
Format profile : Layer 3
Codec ID : 55
Codec ID/Hint : MP3
Duration : 8mn 18s
Bit rate mode : Constant
Bit rate : 128 Kbps
Channel(s) : 2 channels
Sampling rate : 44.1 KHz
Compression mode : Lossy
Stream size : 7.61 MiB (10%)
Alignment : Split accross interleaves
Interleave, duration : 26 ms (0.78 video frame)
Writing library : LAME3.98.2

Скриншоты


[leporno.org].t57757.torrent
Torrent: Not registered

Download .torrent

Download

13 KB

Added: 2013-05-17 12:00
Downloaded: 2 times
   
[Profile]  [PM] 

bot

Post 25-May-2013 09:46 (after 7 days)

Topic has been moved from forum Лесбиянки to forum Корзина

Dark Alice
 
Display posts:    
Reply to topic

Current time is: 24-Apr 05:03

All times are UTC + 3



You cannot post new topics in this forum
You cannot reply to topics in this forum
You cannot edit your posts in this forum
You cannot delete your posts in this forum
You cannot vote in polls in this forum
You cannot attach files in this forum
You can download files in this forum