[MyPickupGirls.com] [PickupFuck.com / MyPickupGirls.com] Cock-hungry chicks pick up guys (Amelia, Grace) [All [2012 г., All sex, 3Some, Teens]

Reply to topic
DL-List and Torrent activity
Size:  326 MB   |    Registered:  6 years 1 month   |    Completed:  752 times
None
 
     
 
   
   Author    

Santakss ®

7 years 2 months

210 posts

Post 17-May-2013 12:15

[Quote] 

[PickupFuck.com / MyPickupGirls.com] Cock-hungry chicks pick up guys (Amelia, Grace) [All
Сайт источник: [MyPickupGirls.com]
Год выпуска: 2012
Жанр: All sex, 3Some, Teens
Продолжительность: 00:49:09
В ролях: Amelia, Grace
Описание: ве подруги вышли на охоту и нашли то, что искали.
Советую всем, хоть и постановка, но относительно не плохая.
Видео: MPEG4 Video (H264) 768x432 25fps 856kbps [Video]
Аудио: AAC 48000Hz mono 63kbps [Audio]

Доп.информация

Format : MPEG-4
Format profile : Base Media
Codec ID : isom
File size : 326 MiB
Duration : 49mn 8s
Overall bit rate : 926 Kbps
Tagged date : UTC 2012-10-04 00:38:21
Writing application : Lavf53.24.0
Video
ID : 1
Format : AVC
Format/Info : Advanced Video Codec
Format profile : [email protected]
Format settings, CABAC : Yes
Format settings, ReFrames : 4 frames
Codec ID : avc1
Codec ID/Info : Advanced Video Coding
Duration : 49mn 8s
Bit rate mode : Variable
Bit rate : 857 Kbps
Width : 768 pixels
Height : 432 pixels
Display aspect ratio : 16:9
Frame rate mode : Constant
Frame rate : 25.000 fps
Color space : YUV
Chroma subsampling : 4:2:0
Bit depth : 8 bits
Scan type : Progressive
Bits/(Pixel*Frame) : 0.103
Stream size : 301 MiB (92%)
Writing library : x264 core 119 r2106 07efeb4
Encoding settings : cabac=1 / ref=3 / deblock=1:0:0 / analyse=0x3:0x113 / me=hex / subme=7 / psy=1 / psy_rd=1.00:0.00 / mixed_ref=1 / me_range=16 / chroma_me=1 / trellis=1 / 8x8dct=1 / cqm=0 / deadzone=21,11 / fast_pskip=1 / chroma_qp_offset=4 / threads=6 / sliced_threads=0 / nr=0 / decimate=1 / interlaced=0 / bluray_compat=0 / constrained_intra=0 / bframes=3 / b_pyramid=2 / b_adapt=1 / b_bias=0 / direct=1 / weightb=1 / open_gop=0 / weightp=2 / keyint=150 / keyint_min=15 / scenecut=40 / intra_refresh=0 / rc_lookahead=40 / rc=crf / mbtree=1 / crf=24.0 / qcomp=0.60 / qpmin=0 / qpmax=69 / qpstep=4 / vbv_maxrate=3000 / vbv_bufsize=6000 / crf_max=0.0 / nal_hrd=none / ip_ratio=1.40 / aq=1:1.00
Audio
ID : 2
Format : AAC
Format/Info : Advanced Audio Codec
Format profile : LC
Codec ID : 40
Duration : 49mn 8s
Bit rate mode : Constant
Bit rate : 64.0 Kbps
Channel(s) : 1 channel
Channel positions : Front: C
Sampling rate : 48.0 KHz
Compression mode : Lossy
Delay relative to video : 80ms
Stream size : 22.5 MiB (7%)

Скриншоты



[leporno.org].t57759.torrent
Torrent: Registered Uploaded 2013-05-17 12:15Info Hash: 2494085AB2157CBBE981A80BBBF43C3CAF9D96AF

Download .torrent

Download

13 KB

Status: D repeat
Completed: 752 times
Size: 326 MB


Last edited by Santakss on 2013-09-07 07:59; edited 3 times in total
[Profile]  [PM] 

Alphazone

7 years 8 months

2589 posts

Post 17-May-2013 15:14 (after 2 hours 58 minutes)

[Quote] 

не забываем про Batpic
[Profile]  [PM] 

Dark Alice

6 years 7 months

6621 posts

Приходите в сайт Порноград за новими раздачами !

Post 26-Sep-2013 10:00 (after 4 months 8 days)

[Quote] 

Зарегистрирован: 7 месяцев 23 дня http://leporno.org/viewtopic.php?t=45959

_________________
Signed off for violation of forum rules
[Profile]  [PM] 

bot

Post 26-Sep-2013 10:00 (after 27 seconds)

Topic has been moved from forum Русское порно to forum Корзина

Dark Alice
 
Display posts:    
Reply to topic

Current time is: 17-Jun 19:33

All times are UTC + 3



You cannot post new topics in this forum
You cannot reply to topics in this forum
You cannot edit your posts in this forum
You cannot delete your posts in this forum
You cannot vote in polls in this forum
You cannot attach files in this forum
You can download files in this forum