[MyPickupGirls.com] [MyPickupGirls.com] Crazy publuc fucking in the porch (Kylie & Amelia) [2011 г., All sex, 3Some, Teens, Group]

Reply to topic
DL-List and Torrent activity
None
 
     
 
   
   Author    

Santakss ®

7 years 2 months

210 posts

Post 17-May-2013 12:22

[Quote] 

[MyPickupGirls.com] Crazy publuc fucking in the porch (Kylie & Amelia)
Сайт источник: [MyPickupGirls.com]
Год выпуска: 2011
Жанр: All sex, 3Some, Teens, Group
Продолжительность: 01:06:05
В ролях: Kylie & Amelia
Описание: Русские парни занимаются ПИКАПОМ - знакомятся с девушками на улице, предлагая им хорошо провести время, потрахавшись без обязательств. Все девки с радостью соглашаются, отрываясь по полной, - берут в рот, дают в попку, глотают сперму, отдаются сразу двум...

Доп. информация

Format : AVI
Format/Info : Audio Video Interleave
File size : 685 MiB
Duration : 1h 6mn
Overall bit rate : 1 450 Kbps
Writing application : Lavf53.2.0
Video
ID : 0
Format : VC-1
Codec ID : WMV3
Codec ID/Info : Windows Media Video 9
Codec ID/Hint : WMV3
Duration : 1h 6mn
Bit rate : 1 309 Kbps
Width : 1 024 pixels
Height : 576 pixels
Display aspect ratio : 16:9
Frame rate : 25.000 fps
Bit depth : 8 bits
Compression mode : Lossy
Bits/(Pixel*Frame) : 0.089
Stream size : 618 MiB (90%)
Audio
ID : 1
Format : MPEG Audio
Format version : Version 1
Format profile : Layer 3
Mode : Joint stereo
Mode extension : MS Stereo
Codec ID : 55
Codec ID/Hint : MP3
Duration : 1h 6mn
Bit rate mode : Constant
Bit rate : 128 Kbps
Channel(s) : 2 channels
Sampling rate : 48.0 KHz
Compression mode : Lossy
Stream size : 60.5 MiB (9%)
Alignment : Aligned on interleaves
Interleave, duration : 24 ms (0.60 video frame)
Writing library : LAME3.98.4

Скриншоты



[leporno.org].t57760.torrent
Torrent: Not registered

Download .torrent

Download

14 KB

Added: 2013-05-17 12:21
Downloaded: 1200 times  [ Show DL-List ]
   


Last edited by Santakss on 2013-07-17 16:08; edited 2 times in total
[Profile]  [PM] 

Alphazone

7 years 8 months

2589 posts

Post 17-May-2013 15:14 (after 2 hours 52 minutes)

[Quote] 

не забываем про Batpic
[Profile]  [PM] 

luisluis

6 years 1 month

1255 posts

Post 12-Nov-2014 18:27 (after 1 year 5 months)

[Quote] 

Точно повтор ab
[Profile]  [PM] 
Display posts:    
Reply to topic

Current time is: 17-Jun 20:36

All times are UTC + 3



You cannot post new topics in this forum
You cannot reply to topics in this forum
You cannot edit your posts in this forum
You cannot delete your posts in this forum
You cannot vote in polls in this forum
You cannot attach files in this forum
You can download files in this forum