Чернокожая девица Scarlett Mei Dior (a.k.a. Miley Mei Dior) / Чернокожая девица Scarlett M [2011 г., Gonzo]

Reply to topic
DL-List and Torrent activity
Size:  98 MB   |    Registered:  6 years 1 month   |    Completed:  324 times
DL-List: None
 
     
 
 
   
   Author    

Santakss ®

7 years 2 months

210 posts

Post 17-May-2013 12:46

[Quote] 

Чернокожая девица Scarlett Mei Dior (a.k.a. Miley Mei Dior) / Чернокожая девица Scarlett M
Год выпуска: 2011
Жанр: Gonzo
Продолжительность: 00:27:07
В ролях: Scarlett Mei Dior (a.k.a. Natasha McCollum a.k.a. Miley Mei Dior)
Описание: Парень предложили красивой чернокожей девице попробовать себя в порно...Она согласилась, и правильно сделала!!!
Советую всем!!!
Видео: Windows Media Video 9 480x360 29.97fps 443kbps [Raw Video 1]
Аудио: Windows Media Audio 44100Hz stereo 48kbps [Raw Audio 0]

Доп. информация

: Format : Windows Media
File size : 97.7 MiB
Duration : 27mn 7s
Overall bit rate mode : Variable
Overall bit rate : 504 Kbps
Maximum Overall bit rate : 1 687 Kbps
Encoded date : UTC 2009-02-23 02:38:14.879
Video
ID : 2
Format : VC-1
Format profile : [email protected]
Codec ID : WMV3
Codec ID/Info : Windows Media Video 9
Codec ID/Hint : WMV3
Description of the codec : Windows Media Video 9
Duration : 27mn 7s
Bit rate mode : Variable
Bit rate : 443 Kbps
Width : 480 pixels
Height : 360 pixels
Display aspect ratio : 4:3
Frame rate : 29.970 fps
Bit depth : 8 bits
Scan type : Progressive
Compression mode : Lossy
Bits/(Pixel*Frame) : 0.086
Stream size : 86.0 MiB (88%)
Language : English (US)
Audio
ID : 1
Format : WMA
Format version : Version 2
Codec ID : 161
Codec ID/Info : Windows Media Audio
Description of the codec : Windows Media Audio 9 - 48 kbps, 44 kHz, stereo 2-pass VBR
Duration : 27mn 7s
Bit rate mode : Variable
Bit rate : 48.1 Kbps
Channel(s) : 2 channels
Sampling rate : 44.1 KHz
Bit depth : 16 bits
Stream size : 9.32 MiB (10%)
Language : English (US)

Скриншоты

[leporno.org].t57763.torrent
Torrent: Registered Uploaded 2013-05-17 12:46Info Hash: 6D001939318684E573A42BB647DA1BB71F9C3D2F

Download .torrent

Download

16 KB

Status: checked
Completed: 324 times
Size: 98 MB


Last edited by Santakss on 2015-12-16 09:01; edited 4 times in total
[Profile]  [PM] 

Alphazone

7 years 8 months

2589 posts

Post 17-May-2013 15:14 (after 2 hours 27 minutes)

[Quote] 

не забываем про Batpic
[Profile]  [PM] 

roma200008888

7 years 3 months

1113 posts

Post 19-May-2013 11:44 (after 1 day 20 hours)

[Quote] 

Спасибо)
[Profile]  [PM] 

madmaster

4 years 7 months

337 posts

Post 20-Jun-2015 13:41 (after 2 years 1 month)

[Quote] 

Пойдёт ! :)
[Profile]  [PM] 

Evgeniy 23

7 years 1 month

30 posts

Post 26-Nov-2015 11:49 (after 5 months 5 days)

[Quote] 

Большое спасибо.
[Profile]  [PM] 
Display posts:    
Reply to topic

Current time is: 25-Jun 07:19

All times are UTC + 3



You cannot post new topics in this forum
You cannot reply to topics in this forum
You cannot edit your posts in this forum
You cannot delete your posts in this forum
You cannot vote in polls in this forum
You cannot attach files in this forum
You can download files in this forum