[Twistys.com] Scarlett Mei Dior (Scarlett loves getting her face creamed) [2011 г., All sex]

Reply to topic
DL-List and Torrent activity
Size:  276 MB   |    Registered:  5 years 11 months   |    Completed:  267 times
DL-List: None
 
     
 
 
   
   Author    

Santakss ®

7 years

210 posts

Post 17-May-2013 12:54

[Quote] 

Scarlett Mei Dior (Scarlett loves getting her face creamed)
Сайт источник: [Twistys.com]
Год выпуска: 2011
Жанр: All sex
Продолжительность: 00:28:04
В ролях: Sca
rlett Mei Dior (a.k.a. Natasha McCollum a.k.a. Miley Mei Dior)
Описание: Hi, my name is Scarlett Mei Dior and this is my Twistys Hard Preview Gallery! I really wanted to tempt him with my sexy curves before letting him bury his face between my legs. I love being able to ride a guy backwards because it gets me so wet and stimulates all the right spots. Watch to the end as he coats me with a big load of cum. He loved his experience with the 'Chocolate Barbie' - I hope you do too!
Much Luv Scarlet
Видео: DivX 6 640x480 29.97fps [Stream 00]
Аудио: MPEG Audio Layer 3 48000Hz stereo 64kbps [Stream 01]
Format : AVI
Format/Info : Audio Video Interleave
File size : 276 MiB
Duration : 28mn 4s
Overall bit rate : 1 377 Kbps
Writing application : MEncoder Sherpya-SVN-r30075-4.2.5
Writing library : MPlayer
Video
ID : 0
Format : MPEG-4 Visual
Format profile : [email protected]
Format settings, BVOP : No
Format settings, QPel : No
Format settings, GMC : No warppoints
Format settings, Matrix : Default (H.263)
Codec ID : DIVX
Codec ID/Info : Project Mayo
Codec ID/Hint : DivX 4
Duration : 28mn 4s
Bit rate : 1 299 Kbps
Width : 640 pixels
Height : 480 pixels
Display aspect ratio : 4:3
Frame rate : 29.970 fps
Color space : YUV
Chroma subsampling : 4:2:0
Bit depth : 8 bits
Scan type : Progressive
Bits/(Pixel*Frame) : 0.141
Stream size : 261 MiB (94%)
Writing library : Lavc52.43.0
Audio
ID : 1
Format : MPEG Audio
Format version : Version 1
Format profile : Layer 3
Mode : Joint stereo
Mode extension : MS Stereo
Codec ID : 55
Codec ID/Hint : MP3
Duration : 28mn 4s
Bit rate mode : Variable
Bit rate : 64.0 Kbps
Channel(s) : 2 channels
Sampling rate : 48.0 KHz
Stream size : 12.9 MiB (5%)
Alignment : Aligned on interleaves
Interleave, duration : 24 ms (0.72 video frame)
Interleave, preload duration : 515 ms

Скриншоты



[leporno.org].t57764.torrent
Torrent: Registered Uploaded 2013-05-17 12:54Info Hash: 3DEAF3F4947B64456E19096A04611BE9C8703C93

Download .torrent

Download

12 KB

Status: checked
Completed: 267 times
Size: 276 MB


Last edited by Santakss on 2013-07-17 16:06; edited 3 times in total
[Profile]  [PM] 

Alphazone

7 years 6 months

2637 posts

Post 17-May-2013 15:14 (after 2 hours 19 minutes)

[Quote] 

не забываем про Batpic
[Profile]  [PM] 

roma200008888

7 years 1 month

1207 posts

Post 19-May-2013 11:44 (after 1 day 20 hours)

[Quote] 

Спасибо
[Profile]  [PM] 

madmaster

4 years 4 months

344 posts

Post 30-May-2015 12:31 (after 2 years)

[Quote] 

Поёдёт... :)
[Profile]  [PM] 
Display posts:    
Reply to topic

Current time is: 24-Apr 04:50

All times are UTC + 3



You cannot post new topics in this forum
You cannot reply to topics in this forum
You cannot edit your posts in this forum
You cannot delete your posts in this forum
You cannot vote in polls in this forum
You cannot attach files in this forum
You can download files in this forum