FEU: Crazy Horse Paris 3D / Огонь Кристиана Лубутена в 3Д (Бруно Халлин / Bruno Hullin, KaBo, Crazy Horse) [2012 г., Erotic/Show, 3D, 1080p, BDRip] [rus] Half OverUnder / Вертикальная анаморфная стереопара

Reply to topic
DL-List and Torrent activity
Downloading: [ 1 ]
Size:  6.55 GB   |    Registered:  5 years 11 months   |    Completed:  186 times
 
     
 
 
   
   Author    

IgorekSh ®

6 years 4 months

217 posts

Great Ukraine

Post 18-May-2013 11:15

[Quote] 

FEU: Crazy Horse Paris 3D / Огонь Кристиана Лубутена в 3Д
Год производства: 2012 г.
Страна: Франция
Жанр: Erotic/Show, 3D
Продолжительность: 01:20:24
Язык: Русский
Режиссер: Бруно Халлин / Bruno Hullin
Студия: KaBo, Crazy Horse
В ролях: Люмина Классика, Нука Карамель, Бейби Лайт, Кристиан Лубутен, Лив Менот, Дива Новита, Фьямма Роза, Ясна Снигура, Псикко Тико, Лоа Ваина
Описание: Знаменитый создатель туфель с красной подошвой ставит шоу в известном парижском клубе «CRAZY HORSE PARIS». По словам самого Лубутена, танцеальные номера в парижском кабаре «это памятник, памятник танцу, фантастическая идея праздника для женщин от женщин».
--Проверено на встроенном плейере ТВ Samsung UE55 D6100--Тип HD видео: 1080p
Формат 3D: Half OverUnder / Вертикальная анаморфная стереопара
Качество видео: BDRip
Формат видео: MKV
Видео кодек: H.264/AVC
Аудио кодек: PCM
Видео: AVC / 23,976 fps / 1920х1080p / 10.8 Mbps
Аудио: Русский / AC3 / 48 KHz / 5.1 ch / 640 Kbps (MVO - BD3D Rus)

MediaInfo

Общее
Уникальный идентификатор : 231406714929556561184646944170358748147 (0xAE174FE9D11A735F883C71CAD83E33F3)
Полное имя : D:\Download\Adult content\FEU Crazy Horse Paris 3D 2012 BDRip halfOU 1080p (IgorekSh).mkv
Формат : Matroska
Версия формата : Version 2
Размер файла : 6,55 Гбайт
Продолжительность : 1 ч. 20 м.
Общий поток : 11,7 Мбит/сек
Название фильма : Огонь Кристиана Лубутена / FEU: Crazy Horse Paris (3D) 2012 (by Ash61)
Дата кодирования : UTC 2013-05-15 13:31:03
Программа кодирования : mkvmerge v5.8.0 ('No Sleep / Pillow') built on Sep 2 2012 15:37:04
Библиотека кодирования : libebml v1.2.3 + libmatroska v1.3.0
Видео
Идентификатор : 1
Формат : AVC
Формат/Информация : Advanced Video Codec
Профиль формата : [email protected]
Параметр CABAC формата : Да
Параметр ReFrames формата : 4 кадра
Идентификатор кодека : V_MPEG4/ISO/AVC
Продолжительность : 1 ч. 20 м.
Битрейт : 10,8 Мбит/сек
Ширина : 1920 пикселей
Высота : 1080 пикселей
Соотношение сторон : 16:9
Режим частоты кадров : Постоянный
Частота кадров : 23,976 кадра/сек
Цветовое пространство : YUV
Субдискретизация насыщенности : 4:2:0
Битовая глубина : 8 бит
Тип развёртки : Прогрессивная
Бит/(Пиксели*Кадры) : 0.217
Размер потока : 6,06 Гбайт (93%)
Заголовок : BDRip by Ash61
Библиотека кодирования : x264 core 129 r2245 bc13772
Настройки программы : cabac=1 / ref=4 / deblock=1:-3:-3 / analyse=0x3:0x113 / me=umh / subme=9 / psy=1 / psy_rd=1.00:0.15 / mixed_ref=1 / me_range=32 / chroma_me=1 / trellis=2 / 8x8dct=1 / cqm=0 / deadzone=21,11 / fast_pskip=1 / chroma_qp_offset=-3 / threads=12 / lookahead_threads=2 / sliced_threads=0 / nr=0 / decimate=1 / interlaced=0 / bluray_compat=0 / constrained_intra=0 / bframes=7 / b_pyramid=2 / b_adapt=2 / b_bias=0 / direct=3 / weightb=1 / open_gop=0 / weightp=2 / keyint=250 / keyint_min=23 / scenecut=40 / intra_refresh=0 / rc_lookahead=60 / rc=crf / mbtree=1 / crf=17.0 / qcomp=0.70 / qpmin=0 / qpmax=69 / qpstep=4 / vbv_maxrate=40000 / vbv_bufsize=30000 / crf_max=0.0 / nal_hrd=none / frame-packing=4 / ip_ratio=1.40 / aq=1:0.70
Язык : French
Default : Да
Forced : Нет
Аудио
Идентификатор : 2
Формат : AC-3
Формат/Информация : Audio Coding 3
Расширение режима : CM (complete main)
Параметр Endianness формата : Big
Идентификатор кодека : A_AC3
Продолжительность : 1 ч. 20 м.
Вид битрейта : Постоянный
Битрейт : 640 Кбит/сек
Каналы : 6 каналов
Расположение каналов : Front: L C R, Side: L R, LFE
Частота : 48,0 КГц
Битовая глубина : 16 бит
Метод сжатия : С потерями
Размер потока : 368 Мбайт (5%)
Заголовок : Многоголосый закадровый - BD3D Rus
Язык : Russian
Default : Да
Forced : Да
Меню
00:00:00.000 : :1
00:05:08.517 : :2
00:08:44.733 : :3
00:16:15.183 : :4
00:23:17.938 : :5
00:25:49.882 : :6
00:33:12.073 : :7
00:38:48.076 : :8
00:44:59.697 : :9
00:53:06.392 : :10
00:57:53.845 : :11
01:05:11.366 : :12

Скринлист


[leporno.org].t57830.torrent
Torrent: Registered Uploaded 2013-05-18 11:15Info Hash: D5D72957CA72838727E84DEF4FE6E9E2BBD46804

Download .torrent

Download

17 KB

Status: checked
Completed: 186 times
Size: 6.55 GB
[Profile]  [PM] 
Display posts:    
Reply to topic

Current time is: 24-Apr 09:29

All times are UTC + 3



You cannot post new topics in this forum
You cannot reply to topics in this forum
You cannot edit your posts in this forum
You cannot delete your posts in this forum
You cannot vote in polls in this forum
You cannot attach files in this forum
You can download files in this forum