Tanner Mayes Too - Big For Teens 4 [2009 г., Sex all]

Ответить на тему
Статистика раздачи
Размер:  238 MB   |    Зарегистрирован:  6 года 8 месяца   |    Скачан:  419 раза
DL-List: Нет

Полного источника не было: 13 дня

 
   
 
 
 
Автор

hddom ®

Пол: Не указан

Стаж: 6 года 8 месяца

Сообщений: 729

Откуда: Приморский Край

Создавать темы 03-Май-2011 23:42

[Цитировать]

Tanner Mayes Too - Big For Teens 4
Год выпуска: 2009
Страна: English
Жанр: Sex all
Продолжительность: 18:48
Формат: AVI

Дополнительная информация

Общее
Полное имя :Tanner Mayes Too - Big For Teens 4.avi
Формат : AVI
Формат/Информация : Audio Video Interleave
Размер файла : 238 Мбайт
Продолжительность : 18 м.
Режим общего битрейта : Переменный
Общий поток : 1768 Кбит/сек
Видео
Идентификатор : 0
Формат : MPEG-4 Visual
Профиль формата : Advanced [email protected]
Параметр BVOP формата : 2
Параметр QPel формата : Нет
Параметр GMC формата : Без точки перехода
Параметр матрицы формата : Default (H.263)
Идентификатор кодека : XVID
Идентификатор кодека/Подсказка : XviD
Продолжительность : 18 м.
Битрейт : 1605 Кбит/сек
Ширина : 624 пикселя
Высота : 336 пикселей
Соотношение сторон : 1,85:1
Частота кадров : 29,970 кадров/сек
Цветовое пространство : YUV
Субдискретизация насыщенности : 4:2:0
Битовая глубина : 8 бит
Тип развёртки : Прогрессивная
Метод сжатия : С потерями
Бит/(Пиксели*Кадры) : 0.255
Размер потока : 216 Мбайт (91%)
Библиотека кодирования : XviD 57
Аудио
Идентификатор : 1
Формат : MPEG Audio
Версия формата : Version 1
Профиль формата : Layer 3
Режим : Joint stereo
Расширение режима : MS Stereo
Идентификатор кодека : 55
Идентификатор кодека/Подсказка : MP3
Продолжительность : 18 м.
Вид битрейта : Переменный
Битрейт : 149 Кбит/сек
Каналы : 2 канала
Частота : 48,0 КГц
Метод сжатия : С потерями
Размер потока : 20,1 Мбайт (8%)
Выравнивание : Соединение по промежуткам
Продолжительность промежутка : 24 мс. (0,72 видеокадр)
Время предзагрузки промежутка : 503 мс.
Язык : un

Скриншоты

[leporno.org].t767.torrent 
Торрент: Зарегистрирован [ 2011-05-03 23:42 ] · 373E0F2096F34929BC21B7DD8723900E3DBFE0E9

Скачать .torrent

Скачать

19 KB

Статус: проверено
Скачан: 419 раз
Размер: 238 MB
terms.php


Последний раз редактировалось: hddom (2012-06-20 15:38), всего редактировалось 1 раз
[Профиль] [ЛС]

ne_format

Пол: Не указан

Стаж: 6 года 8 месяца

Сообщений: 340

Создавать темы 04-Май-2011 07:12 (спустя 7 часа)

[Цитировать]

мой любимый релизер
[Профиль] [ЛС]

bot

Создавать темы 04-Май-2011 07:51 (спустя 38 минуты)

Топик был перенесен из форума Порно без сюжета в форум Молоденькие

kazak
 
Показать сообщения:    
Ответить на тему