Tanner Mayes Too - Big For Teens 4 [2009 г., Sex all]

Reply to topic
DL-List and Torrent activity
None
 
     
 
   
   Author    

hddom ®

8 years 1 month

692 posts

Приморский Край

Post 03-May-2011 23:42

[Quote] 

Tanner Mayes Too - Big For Teens 4
Год выпуска: 2009
Страна: English
Жанр: Sex all
Продолжительность: 18:48
Формат: AVI

Дополнительная информация

Общее
Полное имя :Tanner Mayes Too - Big For Teens 4.avi
Формат : AVI
Формат/Информация : Audio Video Interleave
Размер файла : 238 Мбайт
Продолжительность : 18 м.
Режим общего битрейта : Переменный
Общий поток : 1768 Кбит/сек
Видео
Идентификатор : 0
Формат : MPEG-4 Visual
Профиль формата : Advanced [email protected]
Параметр BVOP формата : 2
Параметр QPel формата : Нет
Параметр GMC формата : Без точки перехода
Параметр матрицы формата : Default (H.263)
Идентификатор кодека : XVID
Идентификатор кодека/Подсказка : XviD
Продолжительность : 18 м.
Битрейт : 1605 Кбит/сек
Ширина : 624 пикселя
Высота : 336 пикселей
Соотношение сторон : 1,85:1
Частота кадров : 29,970 кадров/сек
Цветовое пространство : YUV
Субдискретизация насыщенности : 4:2:0
Битовая глубина : 8 бит
Тип развёртки : Прогрессивная
Метод сжатия : С потерями
Бит/(Пиксели*Кадры) : 0.255
Размер потока : 216 Мбайт (91%)
Библиотека кодирования : XviD 57
Аудио
Идентификатор : 1
Формат : MPEG Audio
Версия формата : Version 1
Профиль формата : Layer 3
Режим : Joint stereo
Расширение режима : MS Stereo
Идентификатор кодека : 55
Идентификатор кодека/Подсказка : MP3
Продолжительность : 18 м.
Вид битрейта : Переменный
Битрейт : 149 Кбит/сек
Каналы : 2 канала
Частота : 48,0 КГц
Метод сжатия : С потерями
Размер потока : 20,1 Мбайт (8%)
Выравнивание : Соединение по промежуткам
Продолжительность промежутка : 24 мс. (0,72 видеокадр)
Время предзагрузки промежутка : 503 мс.
Язык : un

Скриншоты



Last edited by hddom on 2012-06-20 15:38; edited 1 time in total
[Profile]  [PM] 

ne_format

8 years

321 posts

Post 04-May-2011 07:12 (after 7 hours)

[Quote] 

мой любимый релизер
[Profile]  [PM] 

bot

Post 04-May-2011 07:51 (after 38 minutes)

Топик был перенесен из форума Порно без сюжета в форум Молоденькие

kazak
 
Display posts:    
Reply to topic

Current time is: 27-May 12:00

All times are UTC + 3



You cannot post new topics in this forum
You cannot reply to topics in this forum
You cannot edit your posts in this forum
You cannot delete your posts in this forum
You cannot vote in polls in this forum
You cannot attach files in this forum
You can download files in this forum