Tanner Mayes Too - Big For Teens 4 [2009 г., Sex all]

Ответить на тему
Статистика раздачи
Нет
 
     
 
   
   Автор    

hddom ®

7 года 9 месяца

724 posts

Приморский Край

Создавать темы 03-Май-2011 23:42

[Цитировать] 

Tanner Mayes Too - Big For Teens 4
Год выпуска: 2009
Страна: English
Жанр: Sex all
Продолжительность: 18:48
Формат: AVI

Дополнительная информация

Общее
Полное имя :Tanner Mayes Too - Big For Teens 4.avi
Формат : AVI
Формат/Информация : Audio Video Interleave
Размер файла : 238 Мбайт
Продолжительность : 18 м.
Режим общего битрейта : Переменный
Общий поток : 1768 Кбит/сек
Видео
Идентификатор : 0
Формат : MPEG-4 Visual
Профиль формата : Advanced [email protected]
Параметр BVOP формата : 2
Параметр QPel формата : Нет
Параметр GMC формата : Без точки перехода
Параметр матрицы формата : Default (H.263)
Идентификатор кодека : XVID
Идентификатор кодека/Подсказка : XviD
Продолжительность : 18 м.
Битрейт : 1605 Кбит/сек
Ширина : 624 пикселя
Высота : 336 пикселей
Соотношение сторон : 1,85:1
Частота кадров : 29,970 кадров/сек
Цветовое пространство : YUV
Субдискретизация насыщенности : 4:2:0
Битовая глубина : 8 бит
Тип развёртки : Прогрессивная
Метод сжатия : С потерями
Бит/(Пиксели*Кадры) : 0.255
Размер потока : 216 Мбайт (91%)
Библиотека кодирования : XviD 57
Аудио
Идентификатор : 1
Формат : MPEG Audio
Версия формата : Version 1
Профиль формата : Layer 3
Режим : Joint stereo
Расширение режима : MS Stereo
Идентификатор кодека : 55
Идентификатор кодека/Подсказка : MP3
Продолжительность : 18 м.
Вид битрейта : Переменный
Битрейт : 149 Кбит/сек
Каналы : 2 канала
Частота : 48,0 КГц
Метод сжатия : С потерями
Размер потока : 20,1 Мбайт (8%)
Выравнивание : Соединение по промежуткам
Продолжительность промежутка : 24 мс. (0,72 видеокадр)
Время предзагрузки промежутка : 503 мс.
Язык : un

Скриншоты



Последний раз редактировалось: hddom (2012-06-20 15:38), всего редактировалось 1 раз
[Профиль]  [ЛС] 

ne_format

7 года 9 месяца

336 posts

Создавать темы 04-Май-2011 07:12 (спустя 7 часа)

[Цитировать] 

мой любимый релизер
[Профиль]  [ЛС] 

bot

Создавать темы 04-Май-2011 07:51 (спустя 38 минуты)

Топик был перенесен из форума Порно без сюжета в форум Молоденькие

kazak
 
Показать сообщения:    
Ответить на тему

Текущее время: 23-Фев 07:20

Часовой пояс: UTC + 3



Вы не можете начинать темы
Вы не можете отвечать на сообщения
Вы не можете редактировать свои сообщения
Вы не можете удалять свои сообщения
Вы не можете голосовать в опросах
Вы не можете прикреплять файлы к сообщениям
Вы можете скачивать файлы