102 Позы в сексе / 102 Sex Positionen [2010 г., Kamma, DVDRip, 432p]

Reply to topic
DL-List and Torrent activity
Downloading: [ 2 ]
Complete: [ 5 ]
Size:  1.08 GB   |    Registered:  1 month 26 days   |    Completed:  5 times


Seeders:  66   Leechers:  59  
 
   
 
   
   Author    

hddom ®

7 years 1 month

724 posts

Приморский Край

Post 04-May-2011 04:58

[Quote] 

102 Позы в сексе / 102 Sex Positionen
Год выхода: 2010
Страна: Germany
Жанр: Kamma
Продолжительность: 01:42:50
О фильме: Приелся стандартный перепихончик? Устали от однообразного чпоканья? Ваш волосатый мотороллер плоховато знает дорогу меховых угодий? Мечтаете испытать новые ощущения кайфуя от феерической эйфории, пронзающей каждую клетку вашего тела или просто не знаете шо куда сувать? Тогда этот фильм для вас! После его просмотра ваш опыт будет зашкаливать за границы допустимого, а член вырастет на 2-4 см в зависимости от того нажмёте ли вы на кнопку благодарности или нет. Дерзайте и всё у вас получиться!
Качество: DVDRip
Видео: XviD, 576x432, 25 fps, 1355 kbps
Аудио: MP3, 48 kHz, 2 ch, 128 kbps

Дополнительная информация

Общее
Полное имя :102 Позы в сексе.avi
Формат : AVI
Формат/Информация : Audio Video Interleave
Размер файла : 1,08 Гбайт
Продолжительность : 1 ч. 42 м.
Режим общего битрейта : Переменный
Общий поток : 1498 Кбит/сек
Программа кодирования : VirtualDubMod 1.5.10.2 (build 2542/release)
Библиотека кодирования : VirtualDubMod build 2542/release
Видео
Идентификатор : 0
Формат : MPEG-4 Visual
Профиль формата : Advanced [email protected]
Параметр BVOP формата : 1
Параметр QPel формата : Нет
Параметр GMC формата : Без точки перехода
Параметр матрицы формата : Default (H.263)
Идентификатор кодека : XVID
Идентификатор кодека/Подсказка : XviD
Продолжительность : 1 ч. 42 м.
Битрейт : 1356 Кбит/сек
Ширина : 576 пикселей
Высота : 432 пикселя
Соотношение сторон : 4:3
Частота кадров : 25,000 кадров/сек
Цветовое пространство : YUV
Субдискретизация насыщенности : 4:2:0
Битовая глубина : 8 бит
Тип развёртки : Прогрессивная
Метод сжатия : С потерями
Бит/(Пиксели*Кадры) : 0.218
Размер потока : 998 Мбайт (91%)
Библиотека кодирования : XviD 1.1.2 (UTC 2006-11-01)
Аудио
Идентификатор : 1
Формат : MPEG Audio
Версия формата : Version 1
Профиль формата : Layer 3
Режим : Joint stereo
Расширение режима : MS Stereo
Идентификатор кодека : 55
Идентификатор кодека/Подсказка : MP3
Продолжительность : 1 ч. 42 м.
Вид битрейта : Переменный
Битрейт : 129 Кбит/сек
Номинальный битрейт : 138 Кбит/сек
Каналы : 2 канала
Частота : 48,0 КГц
Метод сжатия : С потерями
Размер потока : 94,6 Мбайт (9%)
Выравнивание : Соединение по промежуткам
Продолжительность промежутка : 24 мс. (0,60 видеокадр)
Время предзагрузки промежутка : 913 мс.
Библиотека кодирования : LAME3.98
Настройки программы : -m j -V 4 -q 3 -lowpass 17 --abr 138

Скриншоты

[leporno.org].t769.torrent  
Torrent: Registered Uploaded 2018-04-23 02:59Info Hash: 56DFAA88B70EDCF7E2E2F13CCDD68BFF86F26AE2

Download .torrent

Download

11 KB

Status: * not checked
Completed: 5 times
Size: 1.08 GB


Last edited by hddom on 2012-06-24 08:19; edited 1 time in total
[Profile]  [PM] 

Evileagle

7 years 1 month

18 posts

Post 13-May-2011 10:17 (after 9 days)

[Quote] 

встаньте кто нить на раздачу
захотелось на старость лет поглядеть ))
[Profile]  [PM] 

SergeyFara

6 years 4 months

9 posts

Post 10-Feb-2012 11:12 (after 8 months 28 days)

[Quote] 

)))
[Profile]  [PM] 

solnce78

6 years 5 months

59 posts

Post 12-Feb-2012 11:45 (after 2 days)

[Quote] 

спасибо
нужно идти опробовать)
[Profile]  [PM] 

VBC

6 years 3 months

88 posts

Post 23-Feb-2012 08:11 (after 10 days)

[Quote] 

Благодарочка
[Profile]  [PM] 

nic_79

6 years 1 month

12 posts

Post 24-May-2012 12:44 (after 3 months 1 day)

[Quote] 

спасибо
[Profile]  [PM] 
Display posts:    
Reply to topic

Current time is: 19-Jun 23:01

All times are UTC + 3