Zooskool Simone Deep in Simone [2008 г., Zoo]

Ответить на тему
Статистика раздачи
Размер:  252 MB   |    Зарегистрирован:  6 года 8 месяца   |    Скачан:  2631 раз
DL-List: Нет
Сидов:  2  [  0 KB/s  ]  
 
   
 
 
 
Автор

hddom ®

Пол: Не указан

Стаж: 6 года 8 месяца

Сообщений: 729

Откуда: Приморский Край

Создавать темы 05-Май-2011 14:37

[Цитировать]

Zooskool Simone Deep in Simone
Год выпуска: 2008
Страна: English
Жанр: Zoo
Продолжительность: 29;50
Формат: WMV

Дополнительная информация

Общее
Полное имя :Zooskool Simone Deep in Simone.wmv
Формат : Windows Media
Размер файла : 252 Мбайт
Продолжительность : 29 м.
Режим общего битрейта : Постоянный
Общий поток : 1181 Кбит/сек
Максимальный общий битрейт : 1213 Кбит/сек
Название фильма : Simone - "Deep Inside Simone"
Исполнитель : http://www.zooskool.com
Дата кодирования : UTC 2005-06-10 00:19:59.000
Правообладатель : http://www.zooskool.com
Примечание : Deep delicious dog-love. For personal viewing only.
Рейтинг : Adult
Видео
Идентификатор : 2
Формат : WMV2
Идентификатор кодека : WMV2
Идентификатор кодека/Информация : Windows Media Video 8
Описание кодека : Windows Media Video V8
Продолжительность : 29 м.
Вид битрейта : Постоянный
Битрейт : 1184 Кбит/сек
Ширина : 720 пикселей
Высота : 576 пикселей
Соотношение сторон : 4:3
Частота кадров : 25,000 кадров/сек
Стандарт вещания : PAL
Битовая глубина : 8 бит
Бит/(Пиксели*Кадры) : 0.114
Размер потока : 253 Мбайт
Язык : English (GB)
Аудио
Идентификатор : 1
Формат : WMA
Версия формата : Version 2
Идентификатор кодека : 161
Идентификатор кодека/Информация : Windows Media Audio
Описание кодека : Windows Media Audio 9.1 - 16 kbps, 16 kHz, stereo 1-pass CBR
Продолжительность : 29 м.
Вид битрейта : Постоянный
Битрейт : 16,0 Кбит/сек
Каналы : 2 канала
Частота : 16,0 КГц
Битовая глубина : 16 бит
Размер потока : 3,41 Мбайт (1%)
Язык : English (GB)

Скриншоты

[leporno.org].t790.torrent 
Торрент: Зарегистрирован [ 2011-05-05 14:37 ] · 8C6840BC75785A8CB6F032C6EA955C4F128BABBD

Скачать .torrent

Скачать

20 KB

Статус: проверено
Скачан: 2631 раз
Размер: 252 MB
terms.php


Последний раз редактировалось: hddom (2012-06-24 08:33), всего редактировалось 1 раз
[Профиль] [ЛС]

venersad

Пол: Не указан

Стаж: 6 года 7 месяца

Сообщений: 5

Создавать темы 08-Июн-2011 07:26 (спустя 1 месяц 2 дня)

[Цитировать]

большое спасибо
[Профиль] [ЛС]

kokos6600

Пол: Не указан

Стаж: 6 года 4 месяца

Сообщений: 10

Создавать темы 25-Окт-2011 13:50 (спустя 4 месяца 17 дня)

[Цитировать]

красиво!!!
[Профиль] [ЛС]

ludq

Пол: Не указан

Стаж: 5 года

Сообщений: 572

Создавать темы 30-Дек-2013 19:46 (спустя 2 года 2 месяца)

[Цитировать]

спс
[Профиль] [ЛС]
Показать сообщения:    
Ответить на тему