Zooskool Simone Deep in Simone [2008 г., Zoo]

Ответить на тему
Статистика раздачи
Буду качать: [ 1 ]
Скачал: [ 2 ]
 
     
 
   
   Автор    

hddom ®

7 года 9 месяца

724 posts

Приморский Край

Создавать темы 05-Май-2011 14:37

[Цитировать] 

Zooskool Simone Deep in Simone
Год выпуска: 2008
Страна: English
Жанр: Zoo
Продолжительность: 29;50
Формат: WMV

Дополнительная информация

Общее
Полное имя :Zooskool Simone Deep in Simone.wmv
Формат : Windows Media
Размер файла : 252 Мбайт
Продолжительность : 29 м.
Режим общего битрейта : Постоянный
Общий поток : 1181 Кбит/сек
Максимальный общий битрейт : 1213 Кбит/сек
Название фильма : Simone - "Deep Inside Simone"
Исполнитель : http://www.zooskool.com
Дата кодирования : UTC 2005-06-10 00:19:59.000
Правообладатель : http://www.zooskool.com
Примечание : Deep delicious dog-love. For personal viewing only.
Рейтинг : Adult
Видео
Идентификатор : 2
Формат : WMV2
Идентификатор кодека : WMV2
Идентификатор кодека/Информация : Windows Media Video 8
Описание кодека : Windows Media Video V8
Продолжительность : 29 м.
Вид битрейта : Постоянный
Битрейт : 1184 Кбит/сек
Ширина : 720 пикселей
Высота : 576 пикселей
Соотношение сторон : 4:3
Частота кадров : 25,000 кадров/сек
Стандарт вещания : PAL
Битовая глубина : 8 бит
Бит/(Пиксели*Кадры) : 0.114
Размер потока : 253 Мбайт
Язык : English (GB)
Аудио
Идентификатор : 1
Формат : WMA
Версия формата : Version 2
Идентификатор кодека : 161
Идентификатор кодека/Информация : Windows Media Audio
Описание кодека : Windows Media Audio 9.1 - 16 kbps, 16 kHz, stereo 1-pass CBR
Продолжительность : 29 м.
Вид битрейта : Постоянный
Битрейт : 16,0 Кбит/сек
Каналы : 2 канала
Частота : 16,0 КГц
Битовая глубина : 16 бит
Размер потока : 3,41 Мбайт (1%)
Язык : English (GB)

Скриншоты



Последний раз редактировалось: hddom (2012-06-24 08:33), всего редактировалось 1 раз
[Профиль]  [ЛС] 

venersad

7 года 8 месяца

5 posts

Создавать темы 08-Июн-2011 07:26 (спустя 1 месяц 2 дня)

[Цитировать] 

большое спасибо
[Профиль]  [ЛС] 

kokos6600

7 года 5 месяца

10 posts

Создавать темы 25-Окт-2011 13:50 (спустя 4 месяца 17 дня)

[Цитировать] 

красиво!!!
[Профиль]  [ЛС] 

ludq

6 года 1 месяц

572 posts

Создавать темы 30-Дек-2013 19:46 (спустя 2 года 2 месяца)

[Цитировать] 

спс
[Профиль]  [ЛС] 
Показать сообщения:    
Ответить на тему

Текущее время: 17-Фев 03:03

Часовой пояс: UTC + 3



Вы не можете начинать темы
Вы не можете отвечать на сообщения
Вы не можете редактировать свои сообщения
Вы не можете удалять свои сообщения
Вы не можете голосовать в опросах
Вы не можете прикреплять файлы к сообщениям
Вы можете скачивать файлы