Zooskool Simone Deep in Simone [2008 г., Zoo]

Reply to topic
DL-List and Torrent activity
Will download: [ 1 ]
Downloading: [ 2 ]
Complete: [ 23 ]
 
   
 
   
   Author    

hddom ®

7 years 4 months

724 posts

Приморский Край

Post 05-May-2011 14:37

[Quote] 

Zooskool Simone Deep in Simone
Год выпуска: 2008
Страна: English
Жанр: Zoo
Продолжительность: 29;50
Формат: WMV

Дополнительная информация

Общее
Полное имя :Zooskool Simone Deep in Simone.wmv
Формат : Windows Media
Размер файла : 252 Мбайт
Продолжительность : 29 м.
Режим общего битрейта : Постоянный
Общий поток : 1181 Кбит/сек
Максимальный общий битрейт : 1213 Кбит/сек
Название фильма : Simone - "Deep Inside Simone"
Исполнитель : http://www.zooskool.com
Дата кодирования : UTC 2005-06-10 00:19:59.000
Правообладатель : http://www.zooskool.com
Примечание : Deep delicious dog-love. For personal viewing only.
Рейтинг : Adult
Видео
Идентификатор : 2
Формат : WMV2
Идентификатор кодека : WMV2
Идентификатор кодека/Информация : Windows Media Video 8
Описание кодека : Windows Media Video V8
Продолжительность : 29 м.
Вид битрейта : Постоянный
Битрейт : 1184 Кбит/сек
Ширина : 720 пикселей
Высота : 576 пикселей
Соотношение сторон : 4:3
Частота кадров : 25,000 кадров/сек
Стандарт вещания : PAL
Битовая глубина : 8 бит
Бит/(Пиксели*Кадры) : 0.114
Размер потока : 253 Мбайт
Язык : English (GB)
Аудио
Идентификатор : 1
Формат : WMA
Версия формата : Version 2
Идентификатор кодека : 161
Идентификатор кодека/Информация : Windows Media Audio
Описание кодека : Windows Media Audio 9.1 - 16 kbps, 16 kHz, stereo 1-pass CBR
Продолжительность : 29 м.
Вид битрейта : Постоянный
Битрейт : 16,0 Кбит/сек
Каналы : 2 канала
Частота : 16,0 КГц
Битовая глубина : 16 бит
Размер потока : 3,41 Мбайт (1%)
Язык : English (GB)

Скриншоты



Last edited by hddom on 2012-06-24 08:33; edited 1 time in total
[Profile]  [PM] 

venersad

7 years 3 months

5 posts

Post 08-Jun-2011 07:26 (after 1 month 2 days)

[Quote] 

большое спасибо
[Profile]  [PM] 

kokos6600

7 years

10 posts

Post 25-Oct-2011 13:50 (after 4 months 17 days)

[Quote] 

красиво!!!
[Profile]  [PM] 

ludq

5 years 8 months

572 posts

Post 30-Dec-2013 19:46 (after 2 years 2 months)

[Quote] 

спс
[Profile]  [PM] 
Display posts:    
Reply to topic

Current time is: 23-Sep 09:47

All times are UTC + 3