Gerl & horse [Zoo]

Ответить на тему
Статистика раздачи
Размер:  74 MB   |    Зарегистрирован:  6 года 8 месяца   |    Скачан:  2644 раза
DL-List: Нет

Полного источника не было: 11 дня

 
   
 
 
 
Автор

hddom ®

Пол: Не указан

Стаж: 6 года 8 месяца

Сообщений: 729

Откуда: Приморский Край

Создавать темы 05-Май-2011 23:15

[Цитировать]

Gerl & horse
Страна: English
Жанр: Zoo
Продолжительность: 19:57
Формат: AVI

Дополнительная информация

Общее
Полное имя :Gerl & horse.avi
Формат : AVI
Формат/Информация : Audio Video Interleave
Размер файла : 73,6 Мбайт
Продолжительность : 19 м.
Общий поток : 515 Кбит/сек
Программа кодирования : MediaCoder 0.6
Библиотека кодирования : VirtualDub build 28346/release
Видео
Идентификатор : 0
Формат : MPEG-4 Visual
Параметр BVOP формата : 1
Параметр QPel формата : Нет
Параметр GMC формата : Без точки перехода
Параметр матрицы формата : Default (H.263)
Режим смешивания : Сжатый битовый поток
Идентификатор кодека : DX50
Идентификатор кодека/Подсказка : DivX 5
Продолжительность : 19 м.
Битрейт : 450 Кбит/сек
Ширина : 640 пикселей
Высота : 480 пикселей
Соотношение сторон : 4:3
Частота кадров : 25,000 кадров/сек
Цветовое пространство : YUV
Субдискретизация насыщенности : 4:2:0
Битовая глубина : 8 бит
Тип развёртки : Прогрессивная
Метод сжатия : С потерями
Бит/(Пиксели*Кадры) : 0.059
Размер потока : 64,2 Мбайт (87%)
Библиотека кодирования : DivX 6.2.5 (UTC 2006-07)
Аудио
Идентификатор : 1
Формат : MPEG Audio
Версия формата : Version 2
Профиль формата : Layer 3
Режим : Joint stereo
Расширение режима : Intensity Stereo + MS Stereo
Идентификатор кодека : 55
Идентификатор кодека/Подсказка : MP3
Продолжительность : 19 м.
Вид битрейта : Постоянный
Битрейт : 56,0 Кбит/сек
Каналы : 2 канала
Частота : 22,05 КГц
Метод сжатия : С потерями
Размер потока : 7,95 Мбайт (11%)
Выравнивание : Разделение по промежуткам
Продолжительность промежутка : 40 мс. (1,00 видеокадр)
Время предзагрузки промежутка : 502 мс.

Скриншоты

[leporno.org].t795.torrent 
Торрент: Зарегистрирован [ 2011-05-05 23:15 ] · 2FFB2A56766A2B6019279F7F86A8591E3F058FB2

Скачать .torrent

Скачать

12 KB

Статус: проверено
Скачан: 2644 раз
Размер: 74 MB
terms.php


Последний раз редактировалось: hddom (2012-06-20 15:26), всего редактировалось 1 раз
[Профиль] [ЛС]

hddom ®

Пол: Не указан

Стаж: 6 года 8 месяца

Сообщений: 729

Откуда: Приморский Край

Создавать темы 16-Июн-2011 18:42 (спустя 1 месяц 10 дня)

[Цитировать]

draconicalmeat
другово места ненашол где писать ? :)
и что это ?
[Профиль] [ЛС]

AGISMYN

Пол: Не указан

Стаж: 6 года 5 месяца

Сообщений: 2132

Создавать темы 23-Авг-2011 16:52 (спустя 2 месяца 6 дня)

[Цитировать]

sps
[Профиль] [ЛС]

alekszvere

Пол: Не указан

Стаж: 6 года 3 месяца

Сообщений: 3

Создавать темы 26-Сен-2011 23:32 (спустя 1 месяц 3 дня)

[Цитировать]

СПАСИБО
[Профиль] [ЛС]

w-41

Пол: Не указан

Стаж: 6 года 6 месяца

Сообщений: 155

Создавать темы 06-Окт-2011 23:52 (спустя 10 дня)

[Цитировать]

спасибо
[Профиль] [ЛС]

eney54

Пол: Не указан

Стаж: 6 года 2 месяца

Сообщений: 33

Создавать темы 24-Ноя-2011 16:40 (спустя 1 месяц 17 дня)

[Цитировать]

Б. Спасибо
[Профиль] [ЛС]

kater

Пол: Не указан

Стаж: 5 года 10 месяца

Сообщений: 510

Создавать темы 08-Июн-2012 18:58 (спустя 6 месяца 14 дня)

[Цитировать]

спасибо!!!!
[Профиль] [ЛС]

Николас1985

Пол: Не указан

Стаж: 5 года 5 месяца

Сообщений: 3

Создавать темы 20-Авг-2012 19:33 (спустя 2 месяца 12 дня)

[Цитировать]

обалденно
[Профиль] [ЛС]

lolopasa

Пол: Не указан

Стаж: 5 года 7 месяца

Сообщений: 1197

Создавать темы 21-Авг-2012 00:08 (спустя 4 часа)

[Цитировать]

thankssssssss
[Профиль] [ЛС]
Показать сообщения:    
Ответить на тему