Gerl & horse [Zoo]

Reply to topic
DL-List and Torrent activity
Will download: [ 12 ]
Complete: [ 26 ]
 
   
 
   
   Author    

hddom ®

7 years 4 months

724 posts

Приморский Край

Post 05-May-2011 23:15

[Quote] 

Gerl & horse
Страна: English
Жанр: Zoo
Продолжительность: 19:57
Формат: AVI

Дополнительная информация

Общее
Полное имя :Gerl & horse.avi
Формат : AVI
Формат/Информация : Audio Video Interleave
Размер файла : 73,6 Мбайт
Продолжительность : 19 м.
Общий поток : 515 Кбит/сек
Программа кодирования : MediaCoder 0.6
Библиотека кодирования : VirtualDub build 28346/release
Видео
Идентификатор : 0
Формат : MPEG-4 Visual
Параметр BVOP формата : 1
Параметр QPel формата : Нет
Параметр GMC формата : Без точки перехода
Параметр матрицы формата : Default (H.263)
Режим смешивания : Сжатый битовый поток
Идентификатор кодека : DX50
Идентификатор кодека/Подсказка : DivX 5
Продолжительность : 19 м.
Битрейт : 450 Кбит/сек
Ширина : 640 пикселей
Высота : 480 пикселей
Соотношение сторон : 4:3
Частота кадров : 25,000 кадров/сек
Цветовое пространство : YUV
Субдискретизация насыщенности : 4:2:0
Битовая глубина : 8 бит
Тип развёртки : Прогрессивная
Метод сжатия : С потерями
Бит/(Пиксели*Кадры) : 0.059
Размер потока : 64,2 Мбайт (87%)
Библиотека кодирования : DivX 6.2.5 (UTC 2006-07)
Аудио
Идентификатор : 1
Формат : MPEG Audio
Версия формата : Version 2
Профиль формата : Layer 3
Режим : Joint stereo
Расширение режима : Intensity Stereo + MS Stereo
Идентификатор кодека : 55
Идентификатор кодека/Подсказка : MP3
Продолжительность : 19 м.
Вид битрейта : Постоянный
Битрейт : 56,0 Кбит/сек
Каналы : 2 канала
Частота : 22,05 КГц
Метод сжатия : С потерями
Размер потока : 7,95 Мбайт (11%)
Выравнивание : Разделение по промежуткам
Продолжительность промежутка : 40 мс. (1,00 видеокадр)
Время предзагрузки промежутка : 502 мс.

Скриншоты



Last edited by hddom on 2012-06-20 15:26; edited 1 time in total
[Profile]  [PM] 

hddom ®

7 years 4 months

724 posts

Приморский Край

Post 16-Jun-2011 18:42 (after 1 month 10 days)

[Quote] 

draconicalmeat
другово места ненашол где писать ? :)
и что это ?
[Profile]  [PM] 

AGISMYN

7 years 1 month

2131 posts

Post 23-Aug-2011 16:52 (after 2 months 6 days)

[Quote] 

sps
[Profile]  [PM] 

alekszvere

6 years 11 months

3 posts

Post 26-Sep-2011 23:32 (after 1 month 3 days)

[Quote] 

СПАСИБО
[Profile]  [PM] 

w-41

7 years 2 months

155 posts

Post 06-Oct-2011 23:52 (after 10 days)

[Quote] 

спасибо
[Profile]  [PM] 

eney54

6 years 10 months

33 posts

Post 24-Nov-2011 16:40 (after 1 month 17 days)

[Quote] 

Б. Спасибо
[Profile]  [PM] 

kater

6 years 6 months

510 posts

Post 08-Jun-2012 18:58 (after 6 months 14 days)

[Quote] 

спасибо!!!!
[Profile]  [PM] 

Николас1985

6 years 1 month

3 posts

Post 20-Aug-2012 19:33 (after 2 months 12 days)

[Quote] 

обалденно
[Profile]  [PM] 

lolopasa

6 years 3 months

1197 posts

Post 21-Aug-2012 00:08 (after 4 hours)

[Quote] 

thankssssssss
[Profile]  [PM] 

alinacin

2 months 17 days

1 posts

Post 03-Jul-2018 17:25 (after 5 years 10 months)

[Quote] 

Good
[Profile]  [PM] 

artur0007

5 years

1 posts

Post 18-Sep-2018 02:33 (after 2 months 14 days)

[Quote] 

почему нельзя скачать файл?
[Profile]  [PM] 
Display posts:    
Reply to topic

Current time is: 21-Sep 09:08

All times are UTC + 3