Patricia horse fuck and cum [Zoo]

Reply to topic
DL-List and Torrent activity
Will download: [ 1 ]
Complete: [ 9 ]
Size:  190 MB   |    Registered:  3 months 7 days   |    Completed:  9 times


Seeders:  291   Leechers:  89  
 
   
 
   
   Author    

hddom ®

7 years 1 month

724 posts

Приморский Край

Post 05-May-2011 23:26

[Quote] 

Patricia horse fuck and cum
Страна: Brazilia
Жанр: Zoo
Продолжительность: 26:43

Patricia horse fuck and cum

Общее
Полное имя : Patricia horse fuck and cum.avi
Формат : AVI
Формат/Информация : Audio Video Interleave
Размер файла : 190 Мбайт
Продолжительность : 26 м.
Общий поток : 996 Кбит/сек
Библиотека кодирования : VirtualDub-MPEG2 build 23769/release
Видео
Идентификатор : 0
Формат : MPEG-4 Visual
Параметр BVOP формата : 1
Параметр QPel формата : Нет
Параметр GMC формата : Без точки перехода
Параметр матрицы формата : Default (H.263)
Режим смешивания : Сжатый битовый поток
Идентификатор кодека : DX50
Идентификатор кодека/Подсказка : DivX 5
Продолжительность : 26 м.
Битрейт : 930 Кбит/сек
Ширина : 320 пикселей
Высота : 256 пикселей
Соотношение сторон : 5:4
Частота кадров : 25,000 кадров/сек
Цветовое пространство : YUV
Субдискретизация насыщенности : 4:2:0
Битовая глубина : 8 бит
Тип развёртки : Прогрессивная
Метод сжатия : С потерями
Бит/(Пиксели*Кадры) : 0.454
Размер потока : 178 Мбайт (93%)
Библиотека кодирования : DivX 6.4.0 (UTC 2006-10-03)
Аудио
Идентификатор : 1
Формат : MPEG Audio
Версия формата : Version 2
Профиль формата : Layer 3
Режим : Joint stereo
Расширение режима : Intensity Stereo + MS Stereo
Идентификатор кодека : 55
Идентификатор кодека/Подсказка : MP3
Продолжительность : 26 м.
Вид битрейта : Постоянный
Битрейт : 56,0 Кбит/сек
Каналы : 2 канала
Частота : 24,0 КГц
Метод сжатия : С потерями
Размер потока : 10,7 Мбайт (6%)
Выравнивание : Разделение по промежуткам
Продолжительность промежутка : 40 мс. (1,00 видеокадр)
Время предзагрузки промежутка : 500 мс.

Скриншоты

[leporno.org].t796.torrent  
Torrent: Registered Uploaded 2018-03-11 20:23Info Hash: 306F502B2F4F9013EDE6BABF97D778FB7EA46782

Download .torrent

Download

15 KB

Status: checked
Completed: 9 times
Size: 190 MB


Last edited by hddom on 2012-06-20 13:16; edited 1 time in total
[Profile]  [PM] 

locksley

7 years 1 month

125 posts

из вне

Post 27-May-2011 10:09 (after 21 day)

[Quote] 

Девка, как-то выглядит устало, или кони достали, или заплатили мало!! ag
[Profile]  [PM] 

hddom ®

7 years 1 month

724 posts

Приморский Край

Post 27-May-2011 15:47 (after 5 hours)

[Quote] 

26 мин хуй сосать ! как тут не устать
[Profile]  [PM] 

locksley

7 years 1 month

125 posts

из вне

Post 27-May-2011 22:23 (after 6 hours)

[Quote] 

Да, что бы с такими конскими шлангами работать, нужна спортивная подготовка!! ae bp
[Profile]  [PM] 

AGISMYN

6 years 10 months

2131 posts

Post 11-Aug-2011 11:31 (after 2 months 14 days)

[Quote] 

sps
[Profile]  [PM] 

cid.grey

7 years 1 month

468 posts

Из Будущего.

Post 21-Sep-2011 04:38 (after 1 month 9 days)

[Quote] 

ДРУЖИЩЕ БОЛЬШОЕ СПАСИБО ЗА РАЗДАЧУ И ЗА ОТЛИЧНЫЙ РЕЛИЗ.ДЕВУШКА СИМПАТИЧНАЯ,И
СОСЁТ КЛАСНО.ЖДУ ОТ ТЕБЯ НОВЫХ РЕЛИЗОВ С ЛОШАДКАМИ.
[Profile]  [PM] 

eney54

6 years 7 months

33 posts

Post 24-Nov-2011 18:21 (after 2 months 3 days)

[Quote] 

Спасибо. Есть актив с лошадками?
[Profile]  [PM] 

petrovgrad

6 years 5 months

62 posts

Post 19-Dec-2011 21:11 (after 25 days)

[Quote] 

спс
[Profile]  [PM] 

kater

6 years 3 months

510 posts

Post 22-Apr-2012 20:30 (after 4 months 2 days)

[Quote] 

спасибааа
[Profile]  [PM] 

lovewer

6 years 1 month

1 posts

Post 07-May-2012 11:06 (after 14 days)

[Quote] 

а что это за актриса есть еще ее фильмы
[Profile]  [PM] 

kater

6 years 3 months

510 posts

Post 03-Jun-2012 19:54 (after 27 days)

[Quote] 

спасибо
[Profile]  [PM] 

kater

6 years 3 months

510 posts

Post 09-Jun-2012 22:04 (after 6 days)

[Quote] 

спасибо
[Profile]  [PM] 

madmaster

3 years 6 months

405 posts

Post 10-Dec-2014 21:20 (after 2 years 6 months)

[Quote] 

Thfnksss !!!
[Profile]  [PM] 

zet709piter

4 years 1 month

2 posts

Post 11-Jan-2015 13:50 (after 1 month)

[Quote] 

Интересно,на 24ой минуте,когда из рта вроде как сперма коня вытекает-я не эксперт но больше похоже на обычное жирное молоко.
п.с. данный ролик искался мной очень долго,пока про ЛеПорно не прослыхал.
[Profile]  [PM] 

pletneyv

6 years 8 months

11 posts

рязань

Post 21-Apr-2015 14:34 (after 3 months 10 days)

[Quote] 

спасибо!
[Profile]  [PM] 

tolick.culakov

6 years 7 months

16 posts

Post 16-Jul-2015 19:44 (after 2 months 25 days)

[Quote] 

Видел короткий ролик с ней год назад, никак найти не мог полную версию и как зовут не знал,чисто случайно наткнулся здесь,больное спасибо раздающему,если еще что с ней есть дай знать.
[Profile]  [PM] 
Display posts:    
Reply to topic

Current time is: 19-Jun 13:26

All times are UTC + 3