Patricia horse fuck and cum [Zoo]

Ответить на тему
Статистика раздачи
Размер:  190 MB   |    Зарегистрирован:  6 года 8 месяца   |    Скачан:  3078 раза
DL-List: Нет
Сидов:  2  [  0 KB/s  ]  
 
   
 
 
 
Автор

hddom ®

Пол: Не указан

Стаж: 6 года 8 месяца

Сообщений: 729

Откуда: Приморский Край

Создавать темы 05-Май-2011 23:26

[Цитировать]

Patricia horse fuck and cum
Страна: Brazilia
Жанр: Zoo
Продолжительность: 26:43

Patricia horse fuck and cum

Общее
Полное имя : Patricia horse fuck and cum.avi
Формат : AVI
Формат/Информация : Audio Video Interleave
Размер файла : 190 Мбайт
Продолжительность : 26 м.
Общий поток : 996 Кбит/сек
Библиотека кодирования : VirtualDub-MPEG2 build 23769/release
Видео
Идентификатор : 0
Формат : MPEG-4 Visual
Параметр BVOP формата : 1
Параметр QPel формата : Нет
Параметр GMC формата : Без точки перехода
Параметр матрицы формата : Default (H.263)
Режим смешивания : Сжатый битовый поток
Идентификатор кодека : DX50
Идентификатор кодека/Подсказка : DivX 5
Продолжительность : 26 м.
Битрейт : 930 Кбит/сек
Ширина : 320 пикселей
Высота : 256 пикселей
Соотношение сторон : 5:4
Частота кадров : 25,000 кадров/сек
Цветовое пространство : YUV
Субдискретизация насыщенности : 4:2:0
Битовая глубина : 8 бит
Тип развёртки : Прогрессивная
Метод сжатия : С потерями
Бит/(Пиксели*Кадры) : 0.454
Размер потока : 178 Мбайт (93%)
Библиотека кодирования : DivX 6.4.0 (UTC 2006-10-03)
Аудио
Идентификатор : 1
Формат : MPEG Audio
Версия формата : Version 2
Профиль формата : Layer 3
Режим : Joint stereo
Расширение режима : Intensity Stereo + MS Stereo
Идентификатор кодека : 55
Идентификатор кодека/Подсказка : MP3
Продолжительность : 26 м.
Вид битрейта : Постоянный
Битрейт : 56,0 Кбит/сек
Каналы : 2 канала
Частота : 24,0 КГц
Метод сжатия : С потерями
Размер потока : 10,7 Мбайт (6%)
Выравнивание : Разделение по промежуткам
Продолжительность промежутка : 40 мс. (1,00 видеокадр)
Время предзагрузки промежутка : 500 мс.

Скриншоты

[leporno.org].t796.torrent 
Торрент: Зарегистрирован [ 2011-05-05 23:26 ] · 306F502B2F4F9013EDE6BABF97D778FB7EA46782

Скачать .torrent

Скачать

15 KB

Статус: проверено
Скачан: 3078 раз
Размер: 190 MB
terms.php


Последний раз редактировалось: hddom (2012-06-20 13:16), всего редактировалось 1 раз
[Профиль] [ЛС]

locksley

Пол: Не указан

Стаж: 6 года 8 месяца

Сообщений: 125

Откуда: из вне

Создавать темы 27-Май-2011 10:09 (спустя 21 день)

[Цитировать]

Девка, как-то выглядит устало, или кони достали, или заплатили мало!! ag
[Профиль] [ЛС]

hddom ®

Пол: Не указан

Стаж: 6 года 8 месяца

Сообщений: 729

Откуда: Приморский Край

Создавать темы 27-Май-2011 15:47 (спустя 5 часа)

[Цитировать]

26 мин хуй сосать ! как тут не устать
[Профиль] [ЛС]

locksley

Пол: Не указан

Стаж: 6 года 8 месяца

Сообщений: 125

Откуда: из вне

Создавать темы 27-Май-2011 22:23 (спустя 6 часа)

[Цитировать]

Да, что бы с такими конскими шлангами работать, нужна спортивная подготовка!! ae bp
[Профиль] [ЛС]

AGISMYN

Пол: Не указан

Стаж: 6 года 5 месяца

Сообщений: 2132

Создавать темы 11-Авг-2011 11:31 (спустя 2 месяца 14 дня)

[Цитировать]

sps
[Профиль] [ЛС]

cid.grey

Пол: Не указан

Стаж: 6 года 8 месяца

Сообщений: 469

Откуда: Из Будущего.

Создавать темы 21-Сен-2011 04:38 (спустя 1 месяц 9 дня)

[Цитировать]

ДРУЖИЩЕ БОЛЬШОЕ СПАСИБО ЗА РАЗДАЧУ И ЗА ОТЛИЧНЫЙ РЕЛИЗ.ДЕВУШКА СИМПАТИЧНАЯ,И
СОСЁТ КЛАСНО.ЖДУ ОТ ТЕБЯ НОВЫХ РЕЛИЗОВ С ЛОШАДКАМИ.
[Профиль] [ЛС]

eney54

Пол: Не указан

Стаж: 6 года 2 месяца

Сообщений: 33

Создавать темы 24-Ноя-2011 18:21 (спустя 2 месяца 3 дня)

[Цитировать]

Спасибо. Есть актив с лошадками?
[Профиль] [ЛС]

petrovgrad

Пол: Не указан

Стаж: 6 года 1 месяц

Сообщений: 62

Создавать темы 19-Дек-2011 21:11 (спустя 25 дня)

[Цитировать]

спс
[Профиль] [ЛС]

kater

Пол: Не указан

Стаж: 5 года 10 месяца

Сообщений: 510

Создавать темы 22-Апр-2012 20:30 (спустя 4 месяца 2 дня)

[Цитировать]

спасибааа
[Профиль] [ЛС]

lovewer

Пол: Не указан

Стаж: 5 года 8 месяца

Сообщений: 1

Создавать темы 07-Май-2012 11:06 (спустя 14 дня)

[Цитировать]

а что это за актриса есть еще ее фильмы
[Профиль] [ЛС]

kater

Пол: Не указан

Стаж: 5 года 10 месяца

Сообщений: 510

Создавать темы 03-Июн-2012 19:54 (спустя 27 дня)

[Цитировать]

спасибо
[Профиль] [ЛС]

kater

Пол: Не указан

Стаж: 5 года 10 месяца

Сообщений: 510

Создавать темы 09-Июн-2012 22:04 (спустя 6 дня)

[Цитировать]

спасибо
[Профиль] [ЛС]

madmaster

Пол: Не указан

Стаж: 3 года 1 месяц

Сообщений: 405

Создавать темы 10-Дек-2014 21:20 (спустя 2 года 6 месяца)

[Цитировать]

Thfnksss !!!
[Профиль] [ЛС]

zet709piter

Пол: Не указан

Стаж: 3 года 8 месяца

Сообщений: 2

Создавать темы 11-Янв-2015 13:50 (спустя 1 месяц)

[Цитировать]

Интересно,на 24ой минуте,когда из рта вроде как сперма коня вытекает-я не эксперт но больше похоже на обычное жирное молоко.
п.с. данный ролик искался мной очень долго,пока про ЛеПорно не прослыхал.
[Профиль] [ЛС]

pletneyv

Пол: Не указан

Стаж: 6 года 3 месяца

Сообщений: 11

Откуда: рязань

Создавать темы 21-Апр-2015 14:34 (спустя 3 месяца 10 дня)

[Цитировать]

спасибо!
[Профиль] [ЛС]

tolick.culakov

Пол: Не указан

Стаж: 6 года 2 месяца

Сообщений: 16

Создавать темы 16-Июл-2015 19:44 (спустя 2 месяца 25 дня)

[Цитировать]

Видел короткий ролик с ней год назад, никак найти не мог полную версию и как зовут не знал,чисто случайно наткнулся здесь,больное спасибо раздающему,если еще что с ней есть дай знать.
[Профиль] [ЛС]
Показать сообщения:    
Ответить на тему