Horny Horse Play! Uncensored extreme animal Bizarre! [2009 г., Zoo]

Reply to topic
DL-List and Torrent activity
Will download: [ 3 ]
 
     
 
   
   Author    

hddom ®

8 years 1 month

692 posts

Приморский Край

Post 06-May-2011 05:14

[Quote] 

Horny Horse Play! Uncensored extreme animal Bizarre!
Год выпуска: 2009
Страна: Ispania
Жанр: Zoo
Продолжительность: 16:51
Формат: WMV
Видео: 720х540

Дополнительная информация

Общее
Полное имя :Horny Horse Play! Uncensored extreme animal Bizarre!.wmv
Формат : Windows Media
Размер файла : 402 Мбайт
Продолжительность : 16 м.
Режим общего битрейта : Переменный
Общий поток : 3337 Кбит/сек
Максимальный общий битрейт : 3328 Кбит/сек
Дата кодирования : UTC 2008-02-29 12:07:50.000
Программа кодирования : Flip4Mac WMV Export Component for QuickTime (Mac) ...9
Видео
Идентификатор : 2
Формат : VC-1
Профиль формата : Main
Идентификатор кодека : WMV3
Идентификатор кодека/Информация : Windows Media Video 9
Идентификатор кодека/Подсказка : WMV3
Описание кодека : Windows Media Video V9 - 720 x 540, 25.00 fps, Q=0 (VBR)
Продолжительность : 16 м.
Битрейт : 3071 Кбит/сек
Ширина : 720 пикселей
Высота : 540 пикселей
Соотношение сторон : 4:3
Частота кадров : 25,000 кадров/сек
Битовая глубина : 8 бит
Тип развёртки : Прогрессивная
Метод сжатия : С потерями
Бит/(Пиксели*Кадры) : 0.316
Размер потока : 370 Мбайт (92%)
Язык : English (US)
Аудио
Идентификатор : 1
Формат : WMA
Профиль формата : Pro
Идентификатор кодека : 162
Идентификатор кодека/Информация : Windows Media Audio
Описание кодека : Windows Media Audio V9 Professional - 256 kbps, 48 kHz, 24 bit, Stereo (CBR)
Продолжительность : 16 м.
Вид битрейта : Переменный
Битрейт : 256 Кбит/сек
Каналы : 2 канала
Частота : 48,0 КГц
Битовая глубина : 24 бит
Размер потока : 30,9 Мбайт (8%)
Язык : English (US)

Скриншоты



Last edited by hddom on 2012-06-20 15:51; edited 1 time in total
[Profile]  [PM] 

AGISMYN

7 years 9 months

1650 posts

Post 02-Aug-2011 23:44 (after 2 months 27 days)

[Quote] 

good
[Profile]  [PM] 

E173

7 years 9 months

7 posts

Post 04-Aug-2011 01:28 (after 1 day 1 hour)

[Quote] 

Very good !
[Profile]  [PM] 

Sasha787

7 years 9 months

1 posts

Post 14-Aug-2011 16:42 (after 10 days)

[Quote] 

cool
[Profile]  [PM] 

aba22

7 years 6 months

4 posts

Post 30-Oct-2011 10:42 (after 2 months 15 days)

[Quote] 

спасибо !
[Profile]  [PM] 

flexible111

7 years 1 month

1 posts

Post 03-Apr-2012 01:44 (after 5 months 3 days)

[Quote] 

ay Большое спасибо.
[Profile]  [PM] 

SOP45

7 years 3 months

425 posts

Post 06-Apr-2012 11:36 (after 3 days)

[Quote] 

Спасибо!
[Profile]  [PM] 

19711208

7 years 1 month

6 posts

Post 06-Apr-2012 12:27 (after 50 minutes)

[Quote] 

спасибо
[Profile]  [PM] 

perezz

7 years 2 months

9 posts

Post 06-Apr-2012 21:44 (after 9 hours)

[Quote] 

большое
спасибо
[Profile]  [PM] 

roma200008888

7 years 2 months

1113 posts

Post 09-Apr-2012 18:14 (after 2 days 20 hours)

[Quote] 

Спасибо)))))))))))
[Profile]  [PM] 

Olaf Dettmann

7 years 1 month

3 posts

Post 10-Apr-2012 11:41 (after 17 hours)

[Quote] 

af
[Profile]  [PM] 

ZeR0God

7 years 3 months

30 posts

Post 14-Apr-2012 18:41 (after 4 days)

[Quote] 

Спс!
[Profile]  [PM] 

kater

7 years 2 months

425 posts

Post 22-Apr-2012 19:25 (after 8 days)

[Quote] 

спасибо!
[Profile]  [PM] 

madmaster

4 years 6 months

337 posts

Post 06-Dec-2014 12:49 (after 2 years 7 months)

[Quote] 

THanKSZS !!!
[Profile]  [PM] 

bot

Post 14-Nov-2018 21:09 (after 3 years 11 months)

Топик был перенесен из форума Horses в форум Releases Without .torrent files
m3a1e90
 
Display posts:    
Reply to topic

Current time is: 27-May 12:13

All times are UTC + 3



You cannot post new topics in this forum
You cannot reply to topics in this forum
You cannot edit your posts in this forum
You cannot delete your posts in this forum
You cannot vote in polls in this forum
You cannot attach files in this forum
You can download files in this forum