Horny Horse Play! Uncensored extreme animal Bizarre! [2009 г., Zoo]

Ответить на тему
Статистика раздачи
Буду качать: [ 3 ]
Скачал: [ 1 ]
 
     
 
   
   Автор    

hddom ®

7 года 9 месяца

724 posts

Приморский Край

Создавать темы 06-Май-2011 05:14

[Цитировать] 

Horny Horse Play! Uncensored extreme animal Bizarre!
Год выпуска: 2009
Страна: Ispania
Жанр: Zoo
Продолжительность: 16:51
Формат: WMV
Видео: 720х540

Дополнительная информация

Общее
Полное имя :Horny Horse Play! Uncensored extreme animal Bizarre!.wmv
Формат : Windows Media
Размер файла : 402 Мбайт
Продолжительность : 16 м.
Режим общего битрейта : Переменный
Общий поток : 3337 Кбит/сек
Максимальный общий битрейт : 3328 Кбит/сек
Дата кодирования : UTC 2008-02-29 12:07:50.000
Программа кодирования : Flip4Mac WMV Export Component for QuickTime (Mac) ...9
Видео
Идентификатор : 2
Формат : VC-1
Профиль формата : Main
Идентификатор кодека : WMV3
Идентификатор кодека/Информация : Windows Media Video 9
Идентификатор кодека/Подсказка : WMV3
Описание кодека : Windows Media Video V9 - 720 x 540, 25.00 fps, Q=0 (VBR)
Продолжительность : 16 м.
Битрейт : 3071 Кбит/сек
Ширина : 720 пикселей
Высота : 540 пикселей
Соотношение сторон : 4:3
Частота кадров : 25,000 кадров/сек
Битовая глубина : 8 бит
Тип развёртки : Прогрессивная
Метод сжатия : С потерями
Бит/(Пиксели*Кадры) : 0.316
Размер потока : 370 Мбайт (92%)
Язык : English (US)
Аудио
Идентификатор : 1
Формат : WMA
Профиль формата : Pro
Идентификатор кодека : 162
Идентификатор кодека/Информация : Windows Media Audio
Описание кодека : Windows Media Audio V9 Professional - 256 kbps, 48 kHz, 24 bit, Stereo (CBR)
Продолжительность : 16 м.
Вид битрейта : Переменный
Битрейт : 256 Кбит/сек
Каналы : 2 канала
Частота : 48,0 КГц
Битовая глубина : 24 бит
Размер потока : 30,9 Мбайт (8%)
Язык : English (US)

Скриншоты



Последний раз редактировалось: hddom (2012-06-20 15:51), всего редактировалось 1 раз
[Профиль]  [ЛС] 

AGISMYN

7 года 6 месяца

2127 posts

Создавать темы 02-Авг-2011 23:44 (спустя 2 месяца 27 дня)

[Цитировать] 

good
[Профиль]  [ЛС] 

E173

7 года 6 месяца

7 posts

Создавать темы 04-Авг-2011 01:28 (спустя 1 день 1 час)

[Цитировать] 

Very good !
[Профиль]  [ЛС] 

Sasha787

7 года 6 месяца

1 posts

Создавать темы 14-Авг-2011 16:42 (спустя 10 дня)

[Цитировать] 

cool
[Профиль]  [ЛС] 

aba22

7 года 3 месяца

5 posts

Создавать темы 30-Окт-2011 10:42 (спустя 2 месяца 15 дня)

[Цитировать] 

спасибо !
[Профиль]  [ЛС] 

flexible111

6 года 10 месяца

1 posts

Создавать темы 03-Апр-2012 01:44 (спустя 5 месяца 3 дня)

[Цитировать] 

ay Большое спасибо.
[Профиль]  [ЛС] 

SOP45

7 года

482 posts

Создавать темы 06-Апр-2012 11:36 (спустя 3 дня)

[Цитировать] 

Спасибо!
[Профиль]  [ЛС] 

19711208

6 года 10 месяца

7 posts

Создавать темы 06-Апр-2012 12:27 (спустя 50 минуты)

[Цитировать] 

спасибо
[Профиль]  [ЛС] 

perezz

6 года 11 месяца

10 posts

Создавать темы 06-Апр-2012 21:44 (спустя 9 часа)

[Цитировать] 

большое
спасибо
[Профиль]  [ЛС] 

roma200008888

6 года 11 месяца

1739 posts

Создавать темы 09-Апр-2012 18:14 (спустя 2 дня 20 часа)

[Цитировать] 

Спасибо)))))))))))
[Профиль]  [ЛС] 

Olaf Dettmann

6 года 10 месяца

3 posts

Создавать темы 10-Апр-2012 11:41 (спустя 17 часа)

[Цитировать] 

af
[Профиль]  [ЛС] 

ZeR0God

7 года

32 posts

Создавать темы 14-Апр-2012 18:41 (спустя 4 дня)

[Цитировать] 

Спс!
[Профиль]  [ЛС] 

kater

6 года 11 месяца

508 posts

Создавать темы 22-Апр-2012 19:25 (спустя 8 дня)

[Цитировать] 

спасибо!
[Профиль]  [ЛС] 

madmaster

4 года 2 месяца

403 posts

Создавать темы 06-Дек-2014 12:49 (спустя 2 года 7 месяца)

[Цитировать] 

THanKSZS !!!
[Профиль]  [ЛС] 

bot

Создавать темы 14-Ноя-2018 21:09 (спустя 3 года 11 месяца)

Топик был перенесен из форума Horses в форум Releases Without .torrent files
m3a1e90
 
Показать сообщения:    
Ответить на тему

Текущее время: 23-Фев 07:36

Часовой пояс: UTC + 3



Вы не можете начинать темы
Вы не можете отвечать на сообщения
Вы не можете редактировать свои сообщения
Вы не можете удалять свои сообщения
Вы не можете голосовать в опросах
Вы не можете прикреплять файлы к сообщениям
Вы можете скачивать файлы