Teenagers in love [2011 г., Sex all. Teens, DVDRip]

Ответить на тему
Статистика раздачи
Нет
 
     
 
   
   Автор    

hddom ®

7 года 9 месяца

724 posts

Приморский Край

Создавать темы 06-Май-2011 07:23

[Цитировать] 

Teenagers in love
Год выпуска: 2011
Страна: English
Жанр: Sex all. Teens
Продолжительность: 12:24
Качество: DVDRip
Формат: WMV
Видео: 1280х720

Дополнительная информация

Общее
Полное имя :Teenagers in love.wmv
Формат : Windows Media
Размер файла : 306 Мбайт
Продолжительность : 12 м.
Общий поток : 3448 Кбит/сек
Максимальный общий битрейт : 5128 Кбит/сек
Дата кодирования : UTC 1970-01-01 00:00:00.000
Видео
Идентификатор : 2
Формат : WMV2
Идентификатор кодека : WMV2
Идентификатор кодека/Информация : Windows Media Video 8
Описание кодека : wmv2
Продолжительность : 12 м.
Битрейт : 5000 Кбит/сек
Ширина : 1280 пикселей
Высота : 720 пикселей
Соотношение сторон : 16:9
Частота кадров : 23,976 кадра/сек
Битовая глубина : 8 бит
Бит/(Пиксели*Кадры) : 0.226
Размер потока : 444 Мбайт
Аудио
Идентификатор : 1
Формат : WMA
Версия формата : Version 2
Идентификатор кодека : 161
Идентификатор кодека/Информация : Windows Media Audio
Описание кодека : Windows Media Audio V8
Продолжительность : 12 м.
Битрейт : 128 Кбит/сек
Каналы : 2 канала
Частота : 44,1 КГц
Битовая глубина : 16 бит
Размер потока : 11,4 Мбайт (4%)

Скриншоты



Последний раз редактировалось: hddom (2012-06-20 15:41), всего редактировалось 1 раз
[Профиль]  [ЛС] 

ecventor

7 года 9 месяца

20 posts

Создавать темы 06-Май-2011 12:39 (спустя 5 часа)

[Цитировать] 

Очень красиво снято
[Профиль]  [ЛС] 

maximka462

7 года 9 месяца

2 posts

Создавать темы 11-Май-2011 16:00 (спустя 5 дня)

[Цитировать] 

Спасибо
[Профиль]  [ЛС] 

hddom ®

7 года 9 месяца

724 posts

Приморский Край

Создавать темы 24-Май-2011 16:53 (спустя 13 дня)

[Цитировать] 

пасиб
[Профиль]  [ЛС] 
Показать сообщения:    
Ответить на тему

Текущее время: 17-Фев 02:11

Часовой пояс: UTC + 3



Вы не можете начинать темы
Вы не можете отвечать на сообщения
Вы не можете редактировать свои сообщения
Вы не можете удалять свои сообщения
Вы не можете голосовать в опросах
Вы не можете прикреплять файлы к сообщениям
Вы можете скачивать файлы