Teenagers in love [2011 г., Sex all. Teens, DVDRip]

Ответить на тему
Статистика раздачи
Размер:  306 MB   |    Зарегистрирован:  6 года 8 месяца   |    Скачан:  848 раза
DL-List: Нет

Полного источника не было: 14 дня

 
   
 
 
 
Автор

hddom ®

Пол: Не указан

Стаж: 6 года 8 месяца

Сообщений: 729

Откуда: Приморский Край

Создавать темы 06-Май-2011 07:23

[Цитировать]

Teenagers in love
Год выпуска: 2011
Страна: English
Жанр: Sex all. Teens
Продолжительность: 12:24
Качество: DVDRip
Формат: WMV
Видео: 1280х720

Дополнительная информация

Общее
Полное имя :Teenagers in love.wmv
Формат : Windows Media
Размер файла : 306 Мбайт
Продолжительность : 12 м.
Общий поток : 3448 Кбит/сек
Максимальный общий битрейт : 5128 Кбит/сек
Дата кодирования : UTC 1970-01-01 00:00:00.000
Видео
Идентификатор : 2
Формат : WMV2
Идентификатор кодека : WMV2
Идентификатор кодека/Информация : Windows Media Video 8
Описание кодека : wmv2
Продолжительность : 12 м.
Битрейт : 5000 Кбит/сек
Ширина : 1280 пикселей
Высота : 720 пикселей
Соотношение сторон : 16:9
Частота кадров : 23,976 кадра/сек
Битовая глубина : 8 бит
Бит/(Пиксели*Кадры) : 0.226
Размер потока : 444 Мбайт
Аудио
Идентификатор : 1
Формат : WMA
Версия формата : Version 2
Идентификатор кодека : 161
Идентификатор кодека/Информация : Windows Media Audio
Описание кодека : Windows Media Audio V8
Продолжительность : 12 м.
Битрейт : 128 Кбит/сек
Каналы : 2 канала
Частота : 44,1 КГц
Битовая глубина : 16 бит
Размер потока : 11,4 Мбайт (4%)

Скриншоты

[leporno.org].t799.torrent 
Торрент: Зарегистрирован [ 2011-05-06 07:23 ] · FDD9C2700023AE171DA5AE8AD68FD0CE100745D3

Скачать .torrent

Скачать

12 KB

Статус: проверено
Скачан: 848 раз
Размер: 306 MB
terms.php


Последний раз редактировалось: hddom (2012-06-20 15:41), всего редактировалось 1 раз
[Профиль] [ЛС]

ecventor

Пол: Не указан

Стаж: 6 года 8 месяца

Сообщений: 20

Создавать темы 06-Май-2011 12:39 (спустя 5 часа)

[Цитировать]

Очень красиво снято
[Профиль] [ЛС]

maximka462

Пол: Не указан

Стаж: 6 года 8 месяца

Сообщений: 2

Создавать темы 11-Май-2011 16:00 (спустя 5 дня)

[Цитировать]

Спасибо
[Профиль] [ЛС]

hddom ®

Пол: Не указан

Стаж: 6 года 8 месяца

Сообщений: 729

Откуда: Приморский Край

Создавать темы 24-Май-2011 16:53 (спустя 13 дня)

[Цитировать]

пасиб
[Профиль] [ЛС]
Показать сообщения:    
Ответить на тему