Teenagers in love [2011 г., Sex all. Teens, DVDRip]

Reply to topic
DL-List and Torrent activity
Downloading: [ 4 ]
Complete: [ 8 ]
Size:  306 MB   |    Registered:  1 month 26 days   |    Completed:  8 times


Seeders:  59   Leechers:  684  
 
   
 
   
   Author    

hddom ®

7 years 1 month

724 posts

Приморский Край

Post 06-May-2011 07:23

[Quote] 

Teenagers in love
Год выпуска: 2011
Страна: English
Жанр: Sex all. Teens
Продолжительность: 12:24
Качество: DVDRip
Формат: WMV
Видео: 1280х720

Дополнительная информация

Общее
Полное имя :Teenagers in love.wmv
Формат : Windows Media
Размер файла : 306 Мбайт
Продолжительность : 12 м.
Общий поток : 3448 Кбит/сек
Максимальный общий битрейт : 5128 Кбит/сек
Дата кодирования : UTC 1970-01-01 00:00:00.000
Видео
Идентификатор : 2
Формат : WMV2
Идентификатор кодека : WMV2
Идентификатор кодека/Информация : Windows Media Video 8
Описание кодека : wmv2
Продолжительность : 12 м.
Битрейт : 5000 Кбит/сек
Ширина : 1280 пикселей
Высота : 720 пикселей
Соотношение сторон : 16:9
Частота кадров : 23,976 кадра/сек
Битовая глубина : 8 бит
Бит/(Пиксели*Кадры) : 0.226
Размер потока : 444 Мбайт
Аудио
Идентификатор : 1
Формат : WMA
Версия формата : Version 2
Идентификатор кодека : 161
Идентификатор кодека/Информация : Windows Media Audio
Описание кодека : Windows Media Audio V8
Продолжительность : 12 м.
Битрейт : 128 Кбит/сек
Каналы : 2 канала
Частота : 44,1 КГц
Битовая глубина : 16 бит
Размер потока : 11,4 Мбайт (4%)

Скриншоты

[leporno.org].t799.torrent  
Torrent: Registered Uploaded 2018-04-23 02:59Info Hash: FDD9C2700023AE171DA5AE8AD68FD0CE100745D3

Download .torrent

Download

12 KB

Status: * not checked
Completed: 8 times
Size: 306 MB


Last edited by hddom on 2012-06-20 15:41; edited 1 time in total
[Profile]  [PM] 

ecventor

7 years 1 month

20 posts

Post 06-May-2011 12:39 (after 5 hours)

[Quote] 

Очень красиво снято
[Profile]  [PM] 

maximka462

7 years 1 month

2 posts

Post 11-May-2011 16:00 (after 5 days)

[Quote] 

Спасибо
[Profile]  [PM] 

hddom ®

7 years 1 month

724 posts

Приморский Край

Post 24-May-2011 16:53 (after 13 days)

[Quote] 

пасиб
[Profile]  [PM] 
Display posts:    
Reply to topic

Current time is: 19-Jun 22:36

All times are UTC + 3