Animal - Horse - Camila Drinks Hores Cum [Zoo]

Reply to topic
DL-List and Torrent activity
Downloading: [ 3 ]
Complete: [ 9 ]
 
   
 
   
   Author    

hddom ®

7 years 4 months

724 posts

Приморский Край

Post 07-May-2011 12:08

[Quote] 

Animal - Horse - Camila Drinks Hores Cum
Страна: English
Жанр: Zoo
Продолжительность: 25:33
Формат: AVI

Дополнительная информация

Общее
Полное имя :Animal - Horse - Camila Drinks Hores Cum.avi
Формат : AVI
Формат/Информация : Audio Video Interleave
Размер файла : 403 Мбайт
Продолжительность : 25 м.
Общий поток : 2206 Кбит/сек
Видео
Идентификатор : 0
Формат : MPEG-4 Visual
Параметр BVOP формата : 1
Параметр QPel формата : Нет
Параметр GMC формата : Без точки перехода
Параметр матрицы формата : Default (H.263)
Режим смешивания : Сжатый битовый поток
Идентификатор кодека : DX50
Идентификатор кодека/Подсказка : DivX 5
Продолжительность : 25 м.
Битрейт : 787 Кбит/сек
Ширина : 720 пикселей
Высота : 576 пикселей
Соотношение сторон : 5:4
Частота кадров : 23,976 кадра/сек
Стандарт вещания : PAL
Цветовое пространство : YUV
Субдискретизация насыщенности : 4:2:0
Битовая глубина : 8 бит
Тип развёртки : Прогрессивная
Метод сжатия : С потерями
Бит/(Пиксели*Кадры) : 0.079
Размер потока : 144 Мбайт (36%)
Библиотека кодирования : DivX 6.5.1 (UTC 2007-03)
Аудио
Идентификатор : 1
Формат : PCM
Параметр Endianness формата : Little
Параметр Sign формата : Signed
Идентификатор кодека : 1
Продолжительность : 25 м.
Вид битрейта : Постоянный
Битрейт : 1411,2 Кбит/сек
Каналы : 2 канала
Частота : 44,1 КГц
Битовая глубина : 16 бит
Размер потока : 258 Мбайт (64%)
Продолжительность промежутка : 52 мс. (1,25 видеокадр)

Скриншоты



Last edited by hddom on 2012-06-23 15:50; edited 1 time in total
[Profile]  [PM] 

WelmengideKem

7 years 3 months

1 posts

Bulgaria

Post 14-Jun-2011 07:42 (after 1 month 6 days)

[Quote] 

Look at this press release to find interesting Canada pharmacy details. Customer's privacy and security secured at Canada pharmacy online.
[Profile]  [PM] 

AGISMYN

7 years 1 month

2131 posts

Post 02-Aug-2011 23:42 (after 1 month 18 days)

[Quote] 

sps
[Profile]  [PM] 

petrovgrad

6 years 9 months

62 posts

Post 19-Dec-2011 21:32 (after 4 months 16 days)

[Quote] 

спасибо
[Profile]  [PM] 

биолит

6 years 5 months

5 posts

Post 15-Apr-2012 03:08 (after 3 months 26 days)

[Quote] 

ap be good
[Profile]  [PM] 

kater

6 years 6 months

510 posts

Post 22-Apr-2012 19:23 (after 7 days)

[Quote] 

спс
[Profile]  [PM] 

lapaire

5 years 7 months

4 posts

Post 28-Jan-2013 15:33 (after 9 months 5 days)

[Quote] 

класс
[Profile]  [PM] 

tazzu

6 years 2 months

97 posts

Post 05-Dec-2014 02:41 (after 1 year 10 months)

[Quote] 

hddom, ОТЛИЧНО!!! Благодарю за раздачу!!!
[Profile]  [PM] 

madmaster

3 years 9 months

405 posts

Post 05-Dec-2014 14:52 (after 12 hours)

[Quote] 

ThaNKZ !
[Profile]  [PM] 
Display posts:    
Reply to topic

Current time is: 23-Sep 09:36

All times are UTC + 3