Animal - Horse - Camila Drinks Hores Cum [Zoo]

Ответить на тему
Статистика раздачи
Размер:  403 MB   |    Зарегистрирован:  6 года 8 месяца   |    Скачан:  2932 раза
DL-List: Нет

Полного источника не было: 13 дня

 
   
 
 
 
Автор

hddom ®

Пол: Не указан

Стаж: 6 года 8 месяца

Сообщений: 729

Откуда: Приморский Край

Создавать темы 07-Май-2011 12:08

[Цитировать]

Animal - Horse - Camila Drinks Hores Cum
Страна: English
Жанр: Zoo
Продолжительность: 25:33
Формат: AVI

Дополнительная информация

Общее
Полное имя :Animal - Horse - Camila Drinks Hores Cum.avi
Формат : AVI
Формат/Информация : Audio Video Interleave
Размер файла : 403 Мбайт
Продолжительность : 25 м.
Общий поток : 2206 Кбит/сек
Видео
Идентификатор : 0
Формат : MPEG-4 Visual
Параметр BVOP формата : 1
Параметр QPel формата : Нет
Параметр GMC формата : Без точки перехода
Параметр матрицы формата : Default (H.263)
Режим смешивания : Сжатый битовый поток
Идентификатор кодека : DX50
Идентификатор кодека/Подсказка : DivX 5
Продолжительность : 25 м.
Битрейт : 787 Кбит/сек
Ширина : 720 пикселей
Высота : 576 пикселей
Соотношение сторон : 5:4
Частота кадров : 23,976 кадра/сек
Стандарт вещания : PAL
Цветовое пространство : YUV
Субдискретизация насыщенности : 4:2:0
Битовая глубина : 8 бит
Тип развёртки : Прогрессивная
Метод сжатия : С потерями
Бит/(Пиксели*Кадры) : 0.079
Размер потока : 144 Мбайт (36%)
Библиотека кодирования : DivX 6.5.1 (UTC 2007-03)
Аудио
Идентификатор : 1
Формат : PCM
Параметр Endianness формата : Little
Параметр Sign формата : Signed
Идентификатор кодека : 1
Продолжительность : 25 м.
Вид битрейта : Постоянный
Битрейт : 1411,2 Кбит/сек
Каналы : 2 канала
Частота : 44,1 КГц
Битовая глубина : 16 бит
Размер потока : 258 Мбайт (64%)
Продолжительность промежутка : 52 мс. (1,25 видеокадр)

Скриншоты

[leporno.org].t818.torrent 
Торрент: Зарегистрирован [ 2011-05-07 12:08 ] · D74FBC8F89D3B240597962D2405A116D4725EE79

Скачать .torrent

Скачать

16 KB

Статус: проверено
Скачан: 2932 раз
Размер: 403 MB
terms.php


Последний раз редактировалось: hddom (2012-06-23 15:50), всего редактировалось 1 раз
[Профиль] [ЛС]

WelmengideKem

Пол: Не указан

Стаж: 6 года 7 месяца

Сообщений: 1

Откуда: Bulgaria

Создавать темы 14-Июн-2011 07:42 (спустя 1 месяц 6 дня)

[Цитировать]

Look at this press release to find interesting Canada pharmacy details. Customer's privacy and security secured at Canada pharmacy online.
[Профиль] [ЛС]

AGISMYN

Пол: Не указан

Стаж: 6 года 5 месяца

Сообщений: 2132

Создавать темы 02-Авг-2011 23:42 (спустя 1 месяц 18 дня)

[Цитировать]

sps
[Профиль] [ЛС]

petrovgrad

Пол: Не указан

Стаж: 6 года 1 месяц

Сообщений: 62

Создавать темы 19-Дек-2011 21:32 (спустя 4 месяца 16 дня)

[Цитировать]

спасибо
[Профиль] [ЛС]

биолит

Пол: Не указан

Стаж: 5 года 9 месяца

Сообщений: 5

Создавать темы 15-Апр-2012 03:08 (спустя 3 месяца 26 дня)

[Цитировать]

ap be good
[Профиль] [ЛС]

kater

Пол: Не указан

Стаж: 5 года 10 месяца

Сообщений: 510

Создавать темы 22-Апр-2012 19:23 (спустя 7 дня)

[Цитировать]

спс
[Профиль] [ЛС]

lapaire

Пол: Не указан

Стаж: 4 года 11 месяца

Сообщений: 4

Создавать темы 28-Янв-2013 15:33 (спустя 9 месяца 5 дня)

[Цитировать]

класс
[Профиль] [ЛС]

tazzu

Пол: Не указан

Стаж: 5 года 6 месяца

Сообщений: 97

Создавать темы 05-Дек-2014 02:41 (спустя 1 год 10 месяца)

[Цитировать]

hddom, ОТЛИЧНО!!! Благодарю за раздачу!!!
[Профиль] [ЛС]

madmaster

Пол: Не указан

Стаж: 3 года 1 месяц

Сообщений: 405

Создавать темы 05-Дек-2014 14:52 (спустя 12 часа)

[Цитировать]

ThaNKZ !
[Профиль] [ЛС]
Показать сообщения:    
Ответить на тему