Nicole And Diana horse Cum Cocktail [Zoo]

Reply to topic
DL-List and Torrent activity
Will download: [ 1 ]
Complete: [ 3 ]
Size:  277 MB   |    Registered:  7 years 11 months   |    Completed:  3846 times
Seeders:  3  
 
     
 
   
   Author    

hddom ®

7 years 11 months

699 posts

Приморский Край

Post 07-May-2011 12:20

[Quote] 

Nicole And Diana horse Cum Cocktail
Жанр: Zoo
Продолжительность: 36:15
Формат: WMV

Дополнительная информация

Общее
Полное имя :Nicole And Diana horse Cum Cocktail.wmv
Формат : Windows Media
Размер файла : 277 Мбайт
Продолжительность : 36 м.
Режим общего битрейта : Постоянный
Общий поток : 1070 Кбит/сек
Максимальный общий битрейт : 1076 Кбит/сек
Название фильма : cc1136
Исполнитель : Crazy Cow Movies
Дата кодирования : UTC 2006-08-31 00:25:29.804
Правообладатель : http://www.crazycowmovies.com/
Примечание : [CrazyCow]
Видео
Идентификатор : 2
Формат : VC-1
Профиль формата : [email protected]
Идентификатор кодека : WMV3
Идентификатор кодека/Информация : Windows Media Video 9
Идентификатор кодека/Подсказка : WMV3
Описание кодека : Windows Media Video 9
Продолжительность : 36 м.
Вид битрейта : Постоянный
Битрейт : 1000 Кбит/сек
Ширина : 720 пикселей
Высота : 576 пикселей
Соотношение сторон : 5:4
Частота кадров : 25,000 кадров/сек
Номинальная частота кадров : 29,970 кадров/сек
Стандарт вещания : PAL
Битовая глубина : 8 бит
Тип развёртки : Прогрессивная
Метод сжатия : С потерями
Бит/(Пиксели*Кадры) : 0.096
Размер потока : 259 Мбайт (93%)
Язык : English (US)
Аудио
Идентификатор : 1
Формат : WMA
Версия формата : Version 2
Идентификатор кодека : 161
Идентификатор кодека/Информация : Windows Media Audio
Описание кодека : Windows Media Audio 9.1 - 64 kbps, 44 kHz, stereo (A/V) 1-pass CBR
Продолжительность : 36 м.
Вид битрейта : Постоянный
Битрейт : 64,0 Кбит/сек
Каналы : 2 канала
Частота : 44,1 КГц
Битовая глубина : 16 бит
Размер потока : 16,6 Мбайт (6%)
Язык : English (US)

Скриншоты

[leporno.org].t821.torrent
Torrent: Registered Uploaded 2011-05-07 12:20Info Hash: 35847939FE0A5BCE5028CF9AE81CED78A92FAC5C

Download .torrent

Download

11 KB

Status: checked
Completed: 3846 times
Size: 277 MB


Last edited by hddom on 2012-06-20 15:35; edited 1 time in total
[Profile]  [PM] 

infepiguipt

7 years 10 months

1 posts

Finland

Post 16-Jun-2011 06:03 (after 1 month 8 days)

[Quote] 

Тут был Вася!
Редактировал Sarymian.
[Profile]  [PM] 

hddom ®

7 years 11 months

699 posts

Приморский Край

Post 16-Jun-2011 18:44 (after 12 hours)

[Quote] 

да,бля ?
[Profile]  [PM] 

Axalon

7 years 10 months

1 posts

Post 13-Jul-2011 13:52 (after 26 days)

[Quote] 

шо бля?
[Profile]  [PM] 

AGISMYN

7 years 8 months

1744 posts

Post 05-Aug-2011 00:00 (after 22 days)

[Quote] 

good
[Profile]  [PM] 

kater

7 years 1 month

431 posts

Post 22-Apr-2012 21:00 (after 8 months 17 days)

[Quote] 

спасибб
[Profile]  [PM] 

w-41

7 years 9 months

148 posts

Post 23-Apr-2012 21:20 (after 1 day)

[Quote] 

спасибо
[Profile]  [PM] 

roma200008888

7 years 1 month

1207 posts

Post 24-Apr-2012 12:53 (after 15 hours)

[Quote] 

спасибо )))
[Profile]  [PM] 

Kristin22

6 years 11 months

4 posts

Post 25-Apr-2012 09:32 (after 20 hours)

[Quote] 

Спасибо!
[Profile]  [PM] 

Drum

7 years

243 posts

Post 03-May-2012 21:41 (after 8 days)

[Quote] 

Спасибо!!
[Profile]  [PM] 

гиперактивный

5 years 1 month

2 posts

Post 19-Mar-2014 13:19 (after 1 year 10 months)

[Quote] 

обновите скрины
[Profile]  [PM] 

mitya13

5 years

2088 posts

Ленинград

Post 30-May-2014 05:39 (after 2 months 10 days)

[Quote] 

thanks
[Profile]  [PM] 

Megaframe

6 years 3 months

23 posts

Post 29-Jan-2015 12:38 (after 7 months 30 days)

[Quote] 

да,бля ?
шо бля?
хуй на, бля!
[Profile]  [PM] 

madmaster

4 years 4 months

344 posts

Post 30-Jan-2015 21:59 (after 1 day 9 hours)

[Quote] 

PASIBO !
[Profile]  [PM] 
Display posts:    
Reply to topic

Current time is: 21-Apr 00:05

All times are UTC + 3



You cannot post new topics in this forum
You cannot reply to topics in this forum
You cannot edit your posts in this forum
You cannot delete your posts in this forum
You cannot vote in polls in this forum
You cannot attach files in this forum
You can download files in this forum